<?xml version="1.0" standalone="no"?>
<!DOCTYPE svg PUBLIC "-//W3C//DTD SVG 1.1//EN" "http://www.w3.org/Graphics/SVG/1.1/DTD/svg11.dtd" >
<svg xmlns="http://www.w3.org/2000/svg" xmlns:xlink="http://www.w3.org/1999/xlink" version="1.1">
<metadata>
Created by FontForge 20170731 at Mon Jan 18 07:23:57 2021
 By Aleksey,,,
Copyright 2017 The Barlow Project Authors (https://github.com/jpt/barlow)
</metadata>
<defs>
<font id="Barlow-Bold" horiz-adv-x="1120" >
  <font-face 
    font-family="Barlow"
    font-weight="700"
    font-stretch="normal"
    units-per-em="2048"
    panose-1="0 0 8 0 0 0 0 0 0 0"
    ascent="1638"
    descent="-410"
    x-height="1053"
    cap-height="1434"
    bbox="-1288 -501.524 2365 2009"
    underline-thickness="102"
    underline-position="-307"
    unicode-range="U+000D-25CA"
  />
<missing-glyph horiz-adv-x="970" 
d="M0 12q0 -12 12 -12h946q13 0 13 12v1409q0 13 -13 13h-946q-12 0 -12 -13v-1409zM399 514q-34 0 -34 33v31q0 41 14 75.5t36.5 59t50 45.5t55 40t50 38t36.5 44t14 54q0 47 -35 75.5t-92 28.5q-63 0 -99.5 -30t-36.5 -80v-6q0 -36 -34 -33l-138 6q-34 0 -34 18v15
q0 133 96 216t250 83q151 0 241 -78.5t90 -206.5q0 -57 -19.5 -103t-48 -73.5t-62.5 -53.5t-62.5 -44.5t-48 -45t-19.5 -57.5v-16q0 -35 -34 -35h-136zM475 186q-53 0 -89 34t-36 83q0 48 37.5 82.5t89.5 34.5q50 0 86.5 -35t36.5 -82q0 -49 -37 -83t-88 -34z" />
    <glyph glyph-name="I_J.liga" unicode="IJ" horiz-adv-x="1746" 
d="M160 0q-35 0 -35 35v1364q0 35 35 35h219q35 0 35 -35v-1364q0 -35 -35 -35h-219zM1098 -16q-234 0 -377 128.5t-143 338.5v71q0 35 34 35h219q35 0 35 -35v-71q0 -98 64 -159t168 -61q107 0 172 60.5t65 159.5v948q0 35 35 35h217q35 0 35 -35v-948
q0 -210 -144.5 -338.5t-379.5 -128.5z" />
    <glyph glyph-name="f_f_i.liga" unicode="ffi" horiz-adv-x="1996" 
d="M1731 1147q-78 0 -128.5 48t-50.5 124q0 75 50.5 122.5t128.5 47.5t127 -47.5t49 -122.5q0 -76 -49 -124t-127 -48zM1180 1104v-39q0 -12 12 -12h192q35 0 35 -35v-162q0 -35 -35 -35h-192q-12 0 -12 -12v-774q0 -35 -35 -35h-219q-35 0 -35 35v774q0 12 -12 12h-375
q-12 0 -12 -12v-774q0 -35 -35 -35h-219q-35 0 -35 35v774q0 12 -13 12h-102q-35 0 -35 35v162q0 35 35 35h102q13 0 13 12v63q0 170 93 242.5t314 63.5h68q35 0 35 -35v-127q0 -35 -35 -35h-68q-67 -3 -92.5 -34.5t-25.5 -98.5v-39q0 -12 12 -12h375q12 0 12 12v63
q0 170 93.5 242.5t315.5 63.5h68q35 0 35 -35v-127q0 -35 -35 -35h-68q-68 -3 -94 -35t-26 -98zM1620 0q-35 0 -35 35v983q0 35 35 35h219q35 0 35 -35v-983q0 -35 -35 -35h-219z" />
    <glyph glyph-name="f_f_l.liga" unicode="ffl" horiz-adv-x="1970" 
d="M1180 1104v-39q0 -12 12 -12h192q35 0 35 -35v-162q0 -35 -35 -35h-192q-12 0 -12 -12v-774q0 -35 -35 -35h-219q-35 0 -35 35v774q0 12 -12 12h-375q-12 0 -12 -12v-774q0 -35 -35 -35h-219q-35 0 -35 35v774q0 12 -13 12h-102q-35 0 -35 35v162q0 35 35 35h102
q13 0 13 12v63q0 170 93 242.5t314 63.5h68q35 0 35 -35v-127q0 -35 -35 -35h-68q-67 -3 -92.5 -34.5t-25.5 -98.5v-39q0 -12 12 -12h375q12 0 12 12v63q0 170 93.5 242.5t315.5 63.5h68q35 0 35 -35v-127q0 -35 -35 -35h-68q-68 -3 -94 -35t-26 -98zM1571 1399q0 35 35 35
h219q35 0 35 -35v-1364q0 -35 -35 -35h-219q-35 0 -35 35v1364z" />
    <glyph glyph-name="f_i.liga" unicode="fi" horiz-adv-x="1325" 
d="M1059 1153q-78 0 -127 48t-49 124t49 124t127 48q79 0 127.5 -47.5t48.5 -124.5t-48.5 -124.5t-127.5 -47.5zM696 1055q35 0 35 -35v-174q0 -35 -35 -35h-186q-12 0 -12 -12v-764q0 -35 -35 -35h-219q-35 0 -35 35v764q0 12 -12 12h-109q-35 0 -35 35v174q0 35 35 35h109
q12 0 12 12v43q0 187 89.5 258.5t315.5 65.5h68q35 0 35 -35v-146q0 -34 -35 -34h-57q-72 -2 -99.5 -30.5t-27.5 -101.5v-20q0 -12 12 -12h186zM950 0q-35 0 -35 35v983q0 35 35 35h219q35 0 35 -35v-983q0 -35 -35 -35h-219z" />
    <glyph glyph-name="f_l.liga" unicode="fl" horiz-adv-x="1302" 
d="M696 1055q35 0 35 -35v-174q0 -35 -35 -35h-186q-12 0 -12 -12v-764q0 -35 -35 -35h-219q-35 0 -35 35v764q0 12 -12 12h-109q-35 0 -35 35v174q0 35 35 35h109q12 0 12 12v43q0 187 89.5 258.5t315.5 65.5h68q35 0 35 -35v-146q0 -34 -35 -34h-57q-72 -2 -99.5 -30.5
t-27.5 -101.5v-20q0 -12 12 -12h186zM938 0q-35 0 -35 35v1364q0 35 35 35h219q35 0 35 -35v-1364q0 -35 -35 -35h-219z" />
    <glyph glyph-name="g_j.liga" unicode="gj" horiz-adv-x="1626" 
d="M1376 1145q-77 0 -126.5 49.5t-49.5 122.5q0 71 53 120.5t123 49.5t124 -49.5t54 -120.5q0 -73 -50.5 -122.5t-127.5 -49.5zM1004 1053q34 0 34 -35v-924q0 -95 -22 -172.5t-59.5 -131t-91 -92.5t-114 -60.5t-132 -31.5t-140.5 -9t-143 10q-31 3 -31 37l8 190
q0 17 11 25.5t28 5.5q121 -15 209.5 -3t138.5 70.5t50 163.5q0 6 -4.5 7t-10.5 -5q-76 -82 -225 -82q-62 0 -119.5 14t-114 44t-101.5 85t-69 130q-30 91 -30 243q0 161 37 261q44 125 145.5 200.5t237.5 75.5q153 0 239 -92q6 -6 10.5 -4t4.5 10v35q0 35 34 35h220z
M1233 -4v1022q0 35 35 35h219q35 0 35 -35v-1018q0 -123 -25 -204t-81.5 -129t-139.5 -66t-207 -13q-39 0 -33 39l31 164q5 31 33 31q71 0 102 40t31 134zM733 367q17 66 17 168q0 101 -19 163q-18 56 -61 89.5t-107 33.5q-61 0 -103.5 -33.5t-64.5 -89.5q-28 -61 -28 -166
q0 -114 24 -163q20 -55 65 -89t109 -34q66 0 109 33.5t59 87.5z" />
    <glyph glyph-name="i_j.liga" unicode="ij" horiz-adv-x="1019" 
d="M266 1153q-78 0 -127 48t-49 124t49 124t127 48q79 0 127.5 -47.5t48.5 -124.5t-48.5 -124.5t-127.5 -47.5zM768 1147q-77 0 -126.5 49.5t-49.5 122.5q0 71 53 120.5t123 49.5q72 0 125 -49.5t53 -120.5q0 -73 -50.5 -122.5t-127.5 -49.5zM158 0q-35 0 -35 35v983
q0 35 35 35h219q35 0 35 -35v-983q0 -35 -35 -35h-219zM416 -418q-35 0 -35 35v174q0 33 37 33q114 -3 160.5 36.5t46.5 135.5v1022q0 35 34 35h220q34 0 34 -35v-1018q0 -165 -45 -254.5t-151.5 -128t-300.5 -35.5z" />
    <glyph glyph-name="hyphen_hyphen.liga" unicode="&#x2d;&#x2d;" horiz-adv-x="1349" 
d="M94 475q-35 0 -35 35v176q0 35 35 35h1161q35 0 35 -35v-176q0 -35 -35 -35h-1161z" />
    <glyph glyph-name=".notdef" horiz-adv-x="970" 
d="M0 12q0 -12 12 -12h946q13 0 13 12v1409q0 13 -13 13h-946q-12 0 -12 -13v-1409zM399 514q-34 0 -34 33v31q0 41 14 75.5t36.5 59t50 45.5t55 40t50 38t36.5 44t14 54q0 47 -35 75.5t-92 28.5q-63 0 -99.5 -30t-36.5 -80v-6q0 -36 -34 -33l-138 6q-34 0 -34 18v15
q0 133 96 216t250 83q151 0 241 -78.5t90 -206.5q0 -57 -19.5 -103t-48 -73.5t-62.5 -53.5t-62.5 -44.5t-48 -45t-19.5 -57.5v-16q0 -35 -34 -35h-136zM475 186q-53 0 -89 34t-36 83q0 48 37.5 82.5t89.5 34.5q50 0 86.5 -35t36.5 -82q0 -49 -37 -83t-88 -34z" />
    <glyph glyph-name=".null" horiz-adv-x="0" 
 />
    <glyph glyph-name="nonmarkingreturn" horiz-adv-x="682" 
 />
    <glyph glyph-name="CR" unicode="&#xd;" horiz-adv-x="409" 
 />
    <glyph glyph-name="space" unicode=" " horiz-adv-x="409" 
 />
    <glyph glyph-name="exclam" unicode="!" horiz-adv-x="708" 
d="M272 492q-34 0 -34 34l-25 873q0 35 33 35h219q33 0 33 -35l-27 -873q0 -34 -37 -34h-162zM350 2q-81 0 -133.5 51.5t-52.5 126.5q0 72 56.5 124t129.5 52q74 0 131.5 -52t57.5 -124q0 -74 -54 -126t-135 -52z" />
    <glyph glyph-name="quotedbl" unicode="&#x22;" horiz-adv-x="735" 
d="M92 965q-32 0 -35 32l-26 396q-3 37 35 37h204q38 0 35 -37l-26 -396q-3 -32 -35 -32h-152zM498 965q-32 0 -35 32l-27 396q-3 37 35 37h203q38 0 35 -37l-27 -396q-3 -32 -35 -32h-149z" />
    <glyph glyph-name="numbersign" unicode="#" horiz-adv-x="1406" 
d="M1309 862q0 -35 -35 -35h-141q-12 0 -15 -10l-31 -201q-1 -6 3 -9t10 -3h100q35 0 35 -35v-176q0 -35 -35 -35h-139q-11 0 -14 -10l-41 -260q-6 -33 -37 -33h-219q-37 0 -31 37l39 254q1 6 -2.5 9t-10.5 3h-198q-12 0 -15 -10l-40 -260q-6 -33 -37 -33h-219q-37 0 -31 37
l39 254q1 6 -2.5 9t-10.5 3h-100q-35 0 -35 35v176q0 35 35 35h139q12 0 15 10l30 201q3 12 -12 12h-96q-35 0 -35 35v178q0 35 35 35h137q11 0 14 10l41 261q6 32 37 32h219q37 0 31 -37l-39 -254q-3 -12 12 -12h197q11 0 14 10l41 261q6 32 37 32h219q37 0 31 -37
l-39 -254q-3 -12 12 -12h105q35 0 35 -35zM784 604q12 0 15 10l30 201q3 12 -12 12h-199q-11 0 -14 -10l-31 -201q-1 -6 3 -9t10 -3h198z" />
    <glyph glyph-name="dollar" unicode="$" horiz-adv-x="1130" 
d="M1053 408q0 -171 -101 -282.5t-286 -135.5q-13 -3 -13 -15l2 -92q0 -35 -34 -35h-121q-35 0 -35 35l4 94q0 12 -12 15q-174 22 -271.5 119.5t-97.5 246.5v88q0 35 35 35h213q35 0 35 -26v-29q0 -83 54 -139t153 -56q92 0 139 47t47 115q0 41 -28 73.5t-79 57.5
t-106.5 46.5t-127 53t-122.5 64.5q-104 64 -159.5 146.5t-55.5 205.5q0 163 96.5 269.5t272.5 132.5q12 3 12 14l-4 111q0 35 35 35h116q35 0 35 -35l-2 -109q0 -11 12 -14q183 -20 284 -123.5t101 -263.5v-68q0 -35 -34 -35h-215q-35 0 -35 21v20q0 89 -52 148t-153 59
q-86 0 -135 -41t-49 -110q0 -32 15.5 -58t39 -44t63.5 -36t76.5 -30.5t90.5 -32t94 -37.5q157 -70 230 -169t73 -236z" />
    <glyph glyph-name="percent" unicode="%" horiz-adv-x="1689" 
d="M453 805q-137 0 -232.5 94t-95.5 229q0 134 96 229t232 95q133 0 228 -95t95 -229q0 -135 -94 -229t-229 -94zM387 0q-20 0 -27 12t2 29l762 1368q12 25 43 25h129q20 0 27 -12t-2 -29l-760 -1368q-13 -25 -43 -25h-131zM453 954q70 0 120 51t50 123t-49.5 122t-120.5 50
q-72 0 -123 -50t-51 -122q0 -73 51 -123.5t123 -50.5zM1251 -18q-135 0 -230 95t-95 230q0 134 95 228t230 94t230.5 -94.5t95.5 -227.5q0 -135 -95.5 -230t-230.5 -95zM1251 133q72 0 122 51t50 123t-50.5 122t-121.5 50q-72 0 -122 -50t-50 -122q0 -73 50 -123.5
t122 -50.5z" />
    <glyph glyph-name="ampersand" unicode="&#x26;" horiz-adv-x="1441" 
d="M1327 43q15 -17 8.5 -30t-28.5 -13h-242q-25 0 -43 18q-15 16 -39.5 43.5t-34.5 38.5q-8 8 -18 2q-189 -118 -408 -118q-92 0 -170.5 21.5t-140.5 63.5t-97.5 112.5t-35.5 162.5q0 71 21 132.5t61 110t83 85t101 73.5q12 6 4 17q-102 119 -135 182t-33 127
q0 171 114.5 275t303.5 104q190 0 313 -104t123 -269q0 -67 -21.5 -124.5t-62 -103.5t-84.5 -80.5t-104 -70.5q-12 -6 -2 -16l192 -213q3 -5 8.5 -5t8.5 5q63 63 121 154q20 30 49 12l157 -90q32 -18 13 -49q-79 -123 -170 -224q-8 -8 4 -20q84 -101 184 -209zM606 1188
q-63 0 -100 -32t-37 -85q0 -27 21 -61t90 -119q10 -10 18 -4q71 45 109 88t38 96t-38.5 85t-100.5 32zM573 227q88 13 179 68q12 6 2 16q-69 77 -111 121q-22 23 -59.5 64.5t-53.5 58.5q-8 8 -18 2q-137 -90 -145 -188q-6 -74 50.5 -114t155.5 -28z" />
    <glyph glyph-name="quotesingle" unicode="'" horiz-adv-x="344" 
d="M92 969q-32 0 -35 32l-26 394q-3 37 35 37h219q37 0 34 -37l-26 -394q-3 -32 -35 -32h-166z" />
    <glyph glyph-name="parenleft" unicode="(" horiz-adv-x="710" 
d="M301 -186q-26 0 -43 20q-118 155 -189 368t-71 478q0 266 72 482.5t190 371.5q17 20 43 20h209q21 0 28 -11t-3 -30q-215 -381 -215 -831q0 -452 215 -827q10 -19 3 -30t-28 -11h-211z" />
    <glyph glyph-name="parenright" unicode=")" horiz-adv-x="710" 
d="M453 -166q-17 -20 -43 -20h-211q-21 0 -28 11t3 30q215 375 215 827q0 450 -215 831q-10 19 -3 30t28 11h209q26 0 43 -20q118 -155 190 -371.5t72 -482.5q0 -265 -71 -478t-189 -368z" />
    <glyph glyph-name="asterisk" unicode="*" horiz-adv-x="817" 
d="M360 805q-34 0 -34 35l2 172q0 17 -15 8l-161 -94q-33 -18 -48 12l-49 90q-16 30 15 47l161 86q15 9 0 17l-161 82q-32 16 -15 47l49 90q18 32 48 14l161 -92q15 -9 15 8l-2 168q0 35 34 35h97q35 0 35 -35l-3 -168q0 -17 15 -8l162 92q29 18 47 -14l49 -90
q16 -32 -14 -47l-164 -82q-15 -8 0 -17l164 -86q14 -8 17.5 -20.5t-3.5 -26.5l-49 -90q-15 -30 -47 -12l-162 94q-15 9 -15 -8l3 -172q0 -35 -35 -35h-97z" />
    <glyph glyph-name="plus" unicode="+" horiz-adv-x="995" 
d="M901 739q35 0 35 -34v-179q0 -34 -35 -34h-268q-12 0 -12 -13v-264q0 -35 -35 -35h-176q-35 0 -35 35v264q0 13 -13 13h-268q-35 0 -35 34v179q0 34 35 34h268q13 0 13 13v270q0 35 35 35h176q35 0 35 -35v-270q0 -13 12 -13h268z" />
    <glyph glyph-name="comma" unicode="," horiz-adv-x="542" 
d="M117 -201q-37 0 -31 37l66 455q2 15 11.5 24t24.5 9h187q19 0 27.5 -11t3.5 -28l-123 -457q-10 -29 -39 -29h-127z" />
    <glyph glyph-name="hyphen" unicode="-" horiz-adv-x="837" 
d="M94 481q-35 0 -35 35v178q0 35 35 35h649q35 0 35 -35v-178q0 -35 -35 -35h-649z" />
    <glyph glyph-name="period" unicode="." horiz-adv-x="546" 
d="M270 -8q-81 0 -133.5 51.5t-52.5 126.5q0 72 57 124t129 52q75 0 133 -52t58 -124q0 -74 -55 -126t-136 -52z" />
    <glyph glyph-name="slash" unicode="/" horiz-adv-x="909" 
d="M82 0q-19 0 -27 12t-2 29l520 1366q9 27 39 27h217q19 0 27 -12t2 -29l-520 -1366q-9 -27 -39 -27h-217z" />
    <glyph glyph-name="zero" unicode="0" horiz-adv-x="1167" 
d="M582 -23q-226 0 -357 126t-131 343v541q0 214 131 338.5t357 124.5t357.5 -124.5t131.5 -338.5v-541q0 -217 -131.5 -343t-357.5 -126zM582 225q92 0 146 56t54 151v563q0 95 -54 151t-146 56q-91 0 -145 -56t-54 -151v-563q0 -95 54 -151t145 -56z" />
    <glyph glyph-name="one" unicode="1" horiz-adv-x="694" 
d="M272 1425q21 9 43 9h232q35 0 35 -35v-1364q0 -35 -35 -35h-219q-35 0 -35 35v1116q0 15 -14 12l-181 -37q-17 -3 -28 5.5t-11 25.5v156q0 30 27 39z" />
    <glyph glyph-name="two" unicode="2" horiz-adv-x="1146" 
d="M127 0q-35 0 -35 35v172q0 21 19 43q98 98 265.5 282.5t180.5 198.5q186 206 186 307q0 73 -50.5 118.5t-133.5 45.5t-133.5 -46.5t-50.5 -121.5v-41q0 -35 -35 -35h-221q-35 0 -35 35v86q9 168 142.5 269.5t332.5 101.5q217 0 347 -116.5t130 -289.5q0 -160 -172 -370
q-47 -58 -101.5 -118t-151.5 -161.5t-126 -132.5q-6 -4 -3.5 -9t10.5 -5h536q35 0 35 -35v-178q0 -35 -35 -35h-901z" />
    <glyph glyph-name="three" unicode="3" horiz-adv-x="1105" 
d="M977 684q41 -93 41 -217q0 -110 -37 -205q-51 -130 -166 -204t-272 -74t-274 77.5t-169 210.5q-24 62 -32 162q0 35 34 35h222q33 0 36 -35q3 -45 21 -90q19 -53 60.5 -83t99.5 -30q113 0 157 101q29 63 29 143q0 87 -33 158q-46 96 -155 96q-39 0 -95 -39q-29 -19 -49 8
l-108 146q-19 29 4 49l319 278q6 5 4 10t-10 5h-473q-35 0 -35 35v178q0 35 35 35h834q34 0 34 -35v-201q0 -25 -18 -43l-268 -244q-13 -13 8 -16q178 -35 256 -211z" />
    <glyph glyph-name="four" unicode="4" horiz-adv-x="1239" 
d="M1108 625q35 0 35 -35v-187q0 -34 -35 -34h-74q-12 0 -12 -13v-321q0 -35 -35 -35h-219q-35 0 -35 35v321q0 13 -12 13h-619q-34 0 -34 34v148q0 22 8 43l364 813q14 27 41 27h234q20 0 27 -12t-1 -29l-335 -754q-6 -14 10 -14h305q12 0 12 12v242q0 34 35 34h219
q35 0 35 -34v-242q0 -12 12 -12h74z" />
    <glyph glyph-name="five" unicode="5" horiz-adv-x="1103" 
d="M1006 653q30 -102 30 -194q0 -110 -32 -189q-46 -130 -165.5 -207t-279.5 -77q-156 0 -273 75t-167 203q-19 45 -29 103q-3 17 6 26.5t27 9.5h227q30 0 39 -28q2 -8 10 -29q19 -53 60.5 -81.5t99.5 -28.5q107 0 152 94q15 34 16 39q14 41 14 84q3 56 -18 112
q-13 53 -56.5 82t-107.5 29q-111 0 -158 -76q-15 -27 -41 -27h-235q-35 0 -35 35v791q0 35 35 35h825q35 0 35 -35v-178q0 -35 -35 -35h-559q-5 0 -8.5 -4t-3.5 -8l-2 -297q0 -8 4 -10.5t10 1.5q94 58 211 58q142 0 251 -73.5t153 -199.5z" />
    <glyph glyph-name="six" unicode="6" horiz-adv-x="1099" 
d="M983 694q49 -92 49 -235q0 -121 -39 -213q-53 -122 -166 -191t-266 -69q-158 0 -272.5 72t-165.5 202q-37 87 -37 201v616q0 168 128 270.5t333 102.5q201 0 325.5 -101.5t124.5 -265.5v-47q0 -35 -34 -35h-220q-34 0 -34 23v20q0 68 -45.5 113t-116.5 45
q-75 0 -123.5 -46t-48.5 -118v-188q0 -8 4 -10t10 4q86 69 221 69q123 0 220.5 -56.5t152.5 -162.5zM713 326q30 52 30 129q0 84 -32 135q-51 82 -150 82q-109 0 -153 -84q-31 -53 -31 -137q0 -74 26 -125q46 -90 156 -90q107 0 154 90z" />
    <glyph glyph-name="seven" unicode="7" horiz-adv-x="1015" 
d="M266 0q-18 0 -25 11.5t-1 29.5l436 1130q4 15 -8 15h-379q-13 0 -13 -12v-82q0 -35 -34 -35h-166q-35 0 -35 35l2 307q0 35 35 35h874q35 0 35 -35v-191q0 -22 -8 -43l-438 -1138q-9 -27 -39 -27h-236z" />
    <glyph glyph-name="eight" unicode="8" horiz-adv-x="1107" 
d="M983 631q45 -88 45 -213q0 -120 -47 -209q-55 -105 -167 -165t-263 -60q-145 0 -257 58.5t-169 170.5q-49 94 -49 207q0 117 47 213q40 73 104 119q13 10 0 16q-55 41 -94 102q-49 81 -49 187q0 127 68 223q60 86 164.5 133t236.5 47q150 0 259 -55t165 -164
q47 -88 47 -186q0 -102 -51 -181q-39 -56 -99 -104q-13 -6 0 -16q71 -46 109 -123zM391 1124q-20 -41 -20 -102q0 -64 28 -109q47 -77 154 -77q112 0 160 79q26 45 26 109q0 57 -20 96q-48 92 -166 92q-116 0 -162 -88zM700 299q39 58 39 147q0 59 -20 107q-45 102 -166 102
q-111 0 -160 -100q-22 -49 -22 -113q0 -81 32 -137q49 -78 150 -78q97 0 147 72z" />
    <glyph glyph-name="nine" unicode="9" horiz-adv-x="1087" 
d="M965 1174q36 -85 36 -201v-617q0 -168 -127.5 -270t-332.5 -102q-201 0 -326 101t-125 265v47q0 35 35 35h219q35 0 35 -20v-23q0 -68 45.5 -113t116.5 -45q75 0 123.5 46t48.5 118v189q0 8 -4.5 10t-10.5 -4q-87 -70 -221 -70q-123 0 -220.5 56.5t-152.5 162.5
q-49 92 -49 236q0 121 39 213q53 122 166 191t266 69q158 0 273 -72t166 -202zM680 846q31 53 31 137q0 73 -27 125q-46 90 -156 90q-106 0 -153 -90q-31 -54 -31 -129q0 -82 33 -135q51 -82 149 -82q110 0 154 84z" />
    <glyph glyph-name="colon" unicode=":" horiz-adv-x="745" 
d="M375 682q-81 0 -134 51.5t-53 126.5q0 72 57.5 124t129.5 52q74 0 131 -52t57 -124q0 -74 -53.5 -126t-134.5 -52zM375 12q-81 0 -134 51t-53 127q0 71 57.5 123t129.5 52q73 0 130.5 -52t57.5 -123q0 -76 -53.5 -127t-134.5 -51z" />
    <glyph glyph-name="semicolon" unicode=";" horiz-adv-x="647" 
d="M326 641q-81 0 -134 51.5t-53 126.5q0 72 57.5 124t129.5 52q74 0 131 -52t57 -124q0 -74 -53.5 -126t-134.5 -52zM188 -199q-35 0 -32 37l45 449q1 15 11.5 23.5t25.5 8.5h188q19 0 27.5 -10.5t3.5 -27.5l-107 -449q-6 -31 -37 -31h-125z" />
    <glyph glyph-name="less" unicode="&#x3c;" horiz-adv-x="995" 
d="M936 94q0 -20 -12 -27t-29 1l-809 356q-27 14 -27 41v192q0 27 27 41l809 357q17 8 29 0.5t12 -27.5v-201q0 -27 -27 -39l-534 -219q-7 -3 -7 -8t7 -8l534 -217q27 -12 27 -39v-203z" />
    <glyph glyph-name="equal" unicode="=" horiz-adv-x="995" 
d="M94 682q-35 0 -35 35v178q0 35 35 35h807q35 0 35 -35v-178q0 -35 -35 -35h-807zM94 289q-35 0 -35 35v178q0 35 35 35h807q35 0 35 -35v-178q0 -35 -35 -35h-807z" />
    <glyph glyph-name="greater" unicode="&#x3e;" horiz-adv-x="995" 
d="M100 68q-17 -8 -29 -1t-12 27v203q0 27 27 39l535 217q7 3 7 8t-7 8l-535 219q-27 12 -27 39v201q0 20 12 27.5t29 -0.5l809 -357q27 -14 27 -41v-192q0 -27 -27 -41z" />
    <glyph glyph-name="question" unicode="?" horiz-adv-x="1067" 
d="M389 455q-35 0 -35 34v56q0 58 20 106.5t51.5 82t70 63t77.5 56t70.5 53.5t51.5 62t20 76q0 66 -49 106t-129 40q-87 0 -139 -43t-52 -111v-22q0 -33 -35 -33l-219 8q-15 0 -25 7t-10 18v22q0 186 134.5 302t351.5 116q212 0 338.5 -109t126.5 -290q0 -69 -20 -126
t-52.5 -95.5t-71.5 -70.5t-78.5 -58t-72 -51.5t-52.5 -58t-20 -69.5v-37q0 -34 -35 -34h-217zM510 -4q-72 0 -123 48t-51 116q0 67 52 115.5t124 48.5q70 0 122 -48.5t52 -115.5t-52.5 -115.5t-123.5 -48.5z" />
    <glyph glyph-name="at" unicode="@" horiz-adv-x="1677" 
d="M938 1350q216 0 374 -92.5t232 -261t47 -384.5q-25 -201 -123.5 -312.5t-263.5 -111.5q-146 0 -219 82q-8 8 -16 0q-83 -80 -219 -80q-109 0 -180.5 56t-86.5 145q-13 67 2 176q11 89 41 170q35 101 114.5 155t174.5 54q99 0 152 -59q3 -4 6.5 -5t6 1.5t3.5 7.5l2 18
q1 15 11.5 24t25.5 9h123q39 0 33 -37l-52 -370q-10 -71 16 -119.5t83 -48.5q128 0 164 233q18 138 -8 247t-88.5 179t-155 106.5t-209.5 36.5q-167 0 -306.5 -72.5t-230 -212t-108.5 -323.5q-29 -257 101 -410t368 -153q93 0 176.5 21.5t136.5 54.5q28 16 47 -8l64 -76
q23 -27 -5 -49q-81 -57 -201 -91t-247 -34q-146 0 -271 54t-213 150.5t-130 241.5t-23 316q18 171 93.5 317t189.5 245t261.5 154.5t307.5 55.5zM780 354q81 0 121 86q24 46 33 129q9 79 2 125q-5 39 -32.5 62.5t-69.5 23.5q-41 0 -75 -24t-52 -62q-20 -42 -33 -135
q-11 -80 -2 -119q8 -40 36 -63t72 -23z" />
    <glyph glyph-name="A" unicode="A" horiz-adv-x="1374" 
d="M1047 0q-29 0 -39 29l-58 190q-2 10 -12 10h-502q-10 0 -12 -10l-57 -190q-10 -29 -39 -29h-238q-19 0 -27 11t-2 28l437 1366q10 29 39 29h301q29 0 39 -29l436 -1366q6 -17 -2 -28t-27 -11h-237zM496 467q-3 -14 10 -14h362q14 0 11 14l-185 625q-3 8 -8 8t-8 -8z" />
    <glyph glyph-name="B" unicode="B" horiz-adv-x="1269" 
d="M977 750q-6 -3 -6 -8.5t6 -8.5q192 -97 192 -332q0 -102 -37.5 -180t-104.5 -125.5t-154.5 -71.5t-192.5 -24h-520q-35 0 -35 35v1364q0 35 35 35h504q485 0 485 -394q0 -206 -172 -290zM426 1186q-12 0 -12 -12v-316q0 -12 12 -12h238q96 0 149 44.5t53 123.5
q0 80 -53 126t-149 46h-238zM680 250q95 0 148 47.5t53 132.5t-53.5 132.5t-149.5 47.5h-252q-12 0 -12 -12v-336q0 -12 12 -12h254z" />
    <glyph glyph-name="C" unicode="C" horiz-adv-x="1245" 
d="M629 -16q-241 0 -387 136.5t-146 360.5v473q0 224 146 360t387 136q238 0 384 -130t146 -343q0 -20 -33 -23l-219 -14q-37 -3 -37 10v13q0 107 -66 173t-175 66q-110 0 -177 -66t-67 -173v-494q0 -106 67 -172t177 -66q108 0 174.5 66t66.5 172q0 11 9 17.5t26 5.5
l219 -11q35 -3 35 -10v-10q0 -215 -146 -346t-384 -131z" />
    <glyph glyph-name="D" unicode="D" horiz-adv-x="1265" 
d="M160 0q-35 0 -35 35v1364q0 35 35 35h502q232 0 372 -119t140 -316v-565q0 -196 -140 -315t-372 -119h-502zM414 260q0 -12 12 -12h246q95 0 153 63.5t60 169.5v471q0 106 -58.5 170t-156.5 64h-244q-12 0 -12 -12v-914z" />
    <glyph glyph-name="E" unicode="E" horiz-adv-x="1196" 
d="M1120 1221q0 -35 -35 -35h-659q-12 0 -12 -12v-314q0 -12 12 -12h428q35 0 35 -35v-178q0 -35 -35 -35h-428q-12 0 -12 -12v-328q0 -12 12 -12h659q35 0 35 -35v-178q0 -35 -35 -35h-925q-35 0 -35 35v1364q0 35 35 35h925q35 0 35 -35v-178z" />
    <glyph glyph-name="F" unicode="F" horiz-adv-x="1146" 
d="M1118 1221q0 -35 -35 -35h-657q-12 0 -12 -12v-314q0 -12 12 -12h428q35 0 35 -35v-178q0 -35 -35 -35h-428q-12 0 -12 -12v-553q0 -35 -35 -35h-219q-35 0 -35 35v1364q0 35 35 35h923q35 0 35 -35v-178z" />
    <glyph glyph-name="G" unicode="G" horiz-adv-x="1243" 
d="M629 -16q-239 0 -386 138.5t-147 364.5v459q0 227 146.5 365.5t386.5 138.5q234 0 381 -132.5t147 -330.5v-4q0 -35 -35 -35h-219q-16 0 -25.5 5t-9.5 12v14q0 95 -65 159t-174 64q-110 0 -177 -68.5t-67 -179.5v-475q0 -109 72 -178.5t182 -69.5q107 0 170 56.5
t63 156.5v91q0 12 -12 12h-217q-35 0 -35 35v168q0 34 35 34h479q35 0 35 -34v-261q0 -234 -144 -369.5t-384 -135.5z" />
    <glyph glyph-name="H" unicode="H" horiz-adv-x="1286" 
d="M887 1399q0 35 35 35h219q35 0 35 -35v-1364q0 -35 -35 -35h-219q-35 0 -35 35v553q0 12 -13 12h-448q-12 0 -12 -12v-553q0 -35 -35 -35h-219q-35 0 -35 35v1364q0 35 35 35h219q35 0 35 -35v-539q0 -12 12 -12h448q13 0 13 12v539z" />
    <glyph glyph-name="I" unicode="I" horiz-adv-x="538" 
d="M160 0q-35 0 -35 35v1364q0 35 35 35h219q35 0 35 -35v-1364q0 -35 -35 -35h-219z" />
    <glyph glyph-name="J" unicode="J" horiz-adv-x="1208" 
d="M559 -16q-234 0 -377 128.5t-143 338.5v71q0 35 35 35h219q35 0 35 -35v-71q0 -98 63.5 -159t167.5 -61q107 0 172.5 61t65.5 159v948q0 35 34 35h218q34 0 34 -35v-948q0 -210 -144.5 -338.5t-379.5 -128.5z" />
    <glyph glyph-name="K" unicode="K" horiz-adv-x="1282" 
d="M160 0q-35 0 -35 35v1364q0 35 35 35h219q35 0 35 -35v-559q0 -8 5 -10t9 4l467 579q15 21 43 21h248q22 0 27.5 -12t-7.5 -31l-446 -570q-6 -6 0 -16l473 -764q11 -17 4 -29t-27 -12h-247q-27 0 -41 23l-359 581q-7 14 -18 0l-125 -160q-6 -9 -6 -14v-395q0 -35 -35 -35
h-219z" />
    <glyph glyph-name="L" unicode="L" horiz-adv-x="1171" 
d="M160 0q-35 0 -35 35v1364q0 35 35 35h219q35 0 35 -35v-1139q0 -12 12 -12h657q35 0 35 -35v-178q0 -35 -35 -35h-923z" />
    <glyph glyph-name="M" unicode="M" horiz-adv-x="1456" 
d="M162 0q-35 0 -35 35v1364q0 35 35 35h219q27 0 41 -23l297 -479q3 -6 8 -6t8 6l301 479q14 23 41 23h219q35 0 35 -35v-1364q0 -35 -35 -35h-219q-35 0 -35 35v887q0 9 -5 10.5t-9 -6.5l-207 -338q-14 -23 -41 -23h-104q-27 0 -41 23l-205 338q-4 8 -9 6.5t-5 -10.5v-887
q0 -35 -35 -35h-219z" />
    <glyph glyph-name="N" unicode="N" horiz-adv-x="1347" 
d="M160 0q-35 0 -35 35v1364q0 35 35 35h211q27 0 41 -23l512 -852q4 -8 9 -6.5t5 10.5v836q0 35 35 35h215q35 0 35 -35v-1364q0 -35 -35 -35h-209q-25 0 -41 25l-514 860q-4 8 -9 6.5t-5 -10.5l2 -846q0 -35 -35 -35h-217z" />
    <glyph glyph-name="O" unicode="O" horiz-adv-x="1271" 
d="M635 -23q-243 0 -391 143.5t-148 377.5v438q0 231 148 372.5t391 141.5q244 0 392.5 -141.5t148.5 -372.5v-438q0 -234 -148.5 -377.5t-392.5 -143.5zM635 225q114 0 183 71.5t69 190.5v451q0 120 -69 192t-183 72q-113 0 -181.5 -72t-68.5 -192v-451q0 -118 68.5 -190
t181.5 -72z" />
    <glyph glyph-name="P" unicode="P" horiz-adv-x="1222" 
d="M717 1436q204 0 328 -122.5t124 -322.5q0 -195 -127.5 -314.5t-336.5 -119.5h-289q-13 0 -13 -12v-510q0 -35 -34 -35h-219q-35 0 -35 35v1366q0 35 35 35h567zM674 788q94 0 151.5 54.5t57.5 142.5q0 91 -57.5 146t-151.5 55h-258q-13 0 -13 -12v-373q0 -13 13 -13h258z
" />
    <glyph glyph-name="Q" unicode="Q" horiz-adv-x="1214" 
d="M606 1450q236 0 380 -141t144 -373v-459q0 -182 -98 -307.5t-268 -167.5q-10 -3 -10 -12v-156q0 -35 -35 -35h-219q-35 0 -35 35v154q0 9 -10 12q-171 42 -271 168.5t-100 308.5v459q0 231 144 372.5t378 141.5zM842 483v467q0 113 -65 182.5t-171 69.5
q-104 0 -168.5 -69.5t-64.5 -182.5v-467q0 -113 64.5 -182.5t168.5 -69.5q106 0 171 69.5t65 182.5z" />
    <glyph glyph-name="R" unicode="R" horiz-adv-x="1257" 
d="M920 0q-28 0 -41 27l-252 557q-3 10 -15 10h-186q-12 0 -12 -12v-547q0 -35 -35 -35h-219q-35 0 -35 35v1366q0 35 35 35h575q198 0 318.5 -119t120.5 -313q0 -138 -70 -238.5t-193 -142.5q-6 -1 -7.5 -7t1.5 -10l271 -565q9 -17 2 -29t-27 -12h-231zM426 1186
q-12 0 -12 -12v-345q0 -12 12 -12h266q87 0 141 50.5t54 131.5q0 83 -54.5 135t-140.5 52h-266z" />
    <glyph glyph-name="S" unicode="S" horiz-adv-x="1212" 
d="M610 -16q-242 0 -387 116.5t-145 311.5v34q0 35 35 35h215q34 0 34 -26v-29q0 -81 75 -138t196 -57q109 0 161 46t52 114q0 30 -14 55t-31.5 42t-63.5 39t-77 34.5t-105 39.5q-5 2 -8 3q-56 19 -93.5 33.5t-90 38.5t-87.5 47t-73.5 57.5t-61.5 71.5t-38 86.5t-15 105.5
q0 187 138.5 296.5t361.5 109.5q238 0 388 -121.5t150 -318.5v-21q0 -35 -34 -35h-215q-35 0 -35 21v20q0 85 -70.5 146t-193.5 61q-98 0 -151.5 -40.5t-53.5 -112.5q0 -75 65 -116.5t252 -107.5q157 -57 214 -86q185 -95 221 -251q10 -43 10 -89q0 -188 -142.5 -301.5
t-382.5 -113.5z" />
    <glyph glyph-name="T" unicode="T" horiz-adv-x="1198" 
d="M1104 1434q35 0 35 -35v-180q0 -35 -35 -35h-354q-13 0 -13 -13v-1136q0 -35 -35 -35h-219q-34 0 -34 35v1136q0 13 -13 13h-344q-35 0 -35 35v180q0 35 35 35h1012z" />
    <glyph glyph-name="U" unicode="U" horiz-adv-x="1288" 
d="M645 -16q-238 0 -384 135t-146 356v924q0 35 35 35h219q34 0 34 -35v-926q0 -108 67 -175t175 -67t175 67t67 175v926q0 35 35 35h219q35 0 35 -35v-924q0 -221 -146.5 -356t-384.5 -135z" />
    <glyph glyph-name="V" unicode="V" horiz-adv-x="1273" 
d="M516 0q-29 0 -39 29l-416 1366q-5 18 3 28.5t26 10.5h238q29 0 39 -29l268 -987q1 -8 8 -8t8 8l264 985q10 31 39 31h232q19 0 26.5 -11t1.5 -28l-421 -1366q-10 -29 -39 -29h-238z" />
    <glyph glyph-name="W" unicode="W" horiz-adv-x="1767" 
d="M438 0q-32 0 -39 31l-360 1364q-5 17 3.5 28t27.5 11h233q31 0 37 -31l192 -817q2 -8 9 -8t8 8l184 817q6 31 37 31h231q33 0 39 -31l201 -817q1 -6 4 -7.5t6 0.5t4 7l185 817q6 31 37 31h223q18 0 26 -10.5t3 -28.5l-330 -1364q-6 -31 -39 -31h-225q-33 0 -39 31
l-205 870q-2 8 -8.5 8.5t-8.5 -8.5l-190 -870q-6 -31 -37 -31h-209z" />
    <glyph glyph-name="X" unicode="X" horiz-adv-x="1292" 
d="M98 0q-20 0 -27 12t3 29l389 668q3 8 0 16l-389 668q-10 17 -3 29t27 12h238q30 0 43 -25l260 -459q3 -6 8 -6t8 6l260 459q13 25 43 25h236q20 0 27.5 -12t-2.5 -29l-390 -668q-3 -8 0 -16l390 -668q10 -17 2.5 -29t-27.5 -12h-236q-30 0 -43 25l-260 456q-3 6 -8 6
t-8 -6l-262 -456q-13 -25 -43 -25h-236z" />
    <glyph glyph-name="Y" unicode="Y" horiz-adv-x="1263" 
d="M522 2q-35 0 -35 35v506q0 8 -4 16l-413 834q-9 17 -2.5 29t26.5 12h238q28 0 41 -27l250 -533q3 -6 8 -6t8 6l250 533q13 27 41 27h239q20 0 28 -12t-1 -29l-418 -834q-4 -8 -4 -16v-506q0 -35 -35 -35h-217z" />
    <glyph glyph-name="Z" unicode="Z" horiz-adv-x="1140" 
d="M100 0q-34 0 -34 35v203q0 26 14 43l655 890q4 6 2 10.5t-10 4.5h-627q-34 0 -34 35v178q0 35 34 35h928q35 0 35 -35v-203q0 -26 -14 -43l-656 -891q-4 -6 -2 -10t10 -4h627q35 0 35 -35v-178q0 -35 -35 -35h-928z" />
    <glyph glyph-name="bracketleft" unicode="[" horiz-adv-x="851" 
d="M106 -301q-34 0 -34 35v1870q0 34 34 34h465q35 0 35 -34v-179q0 -34 -35 -34h-198q-13 0 -13 -13v-1417q0 -12 13 -12h200q35 0 35 -35v-180q0 -35 -35 -35h-467z" />
    <glyph glyph-name="backslash" unicode="\" horiz-adv-x="909" 
d="M856 41q6 -17 -2 -29t-27 -12h-217q-30 0 -39 27l-520 1366q-6 19 2 30t27 11h217q30 0 39 -27z" />
    <glyph glyph-name="bracketright" unicode="]" horiz-adv-x="851" 
d="M780 -266q0 -35 -35 -35h-466q-35 0 -35 35v180q0 35 35 35h200q13 0 13 12v1417q0 13 -13 13h-198q-35 0 -35 34v179q0 34 35 34h464q35 0 35 -34v-1870z" />
    <glyph glyph-name="asciicircum" unicode="^" horiz-adv-x="968" 
d="M102 610q-19 0 -26.5 12t-1.5 29l276 754q10 29 39 29h184q29 0 39 -29l283 -754q6 -19 -2 -30t-27 -11h-172q-32 0 -41 29l-161 485q-3 9 -8.5 9t-8.5 -9l-160 -485q-9 -29 -41 -29h-172z" />
    <glyph glyph-name="underscore" unicode="_" horiz-adv-x="1071" 
d="M74 0q-35 0 -35 35v149q0 35 35 35h923q35 0 35 -35v-149q0 -35 -35 -35h-923z" />
    <glyph glyph-name="grave" unicode="`" horiz-adv-x="499" 
d="M438 1217q9 -19 2.5 -30t-26.5 -11h-172q-25 0 -41 22l-131 186q-12 17 -6.5 30t26.5 13h207q29 0 41 -24z" />
    <glyph glyph-name="a" unicode="a" horiz-adv-x="1081" 
d="M528 1069q201 0 330 -100t129 -250v-684q0 -35 -35 -35h-219q-35 0 -35 35v49q0 8 -4 9t-10 -5q-94 -104 -281 -104q-158 0 -254 77.5t-96 229.5q0 157 110.5 244.5t315.5 87.5h207q12 0 12 12v43q0 67 -41.5 105t-121.5 38q-127 0 -156 -78q-12 -29 -41 -26l-227 28
q-16 2 -25 9.5t-8 19.5q15 129 140.5 212t309.5 83zM487 199q88 0 149.5 47t61.5 121v71q0 13 -12 13h-145q-93 0 -146 -35t-53 -99q0 -55 40 -86.5t105 -31.5z" />
    <glyph glyph-name="b" unicode="b" horiz-adv-x="1140" 
d="M1038 784q39 -102 39 -254q0 -146 -35 -245q-42 -136 -149 -218.5t-246 -82.5q-151 0 -233 110q-3 4 -6.5 5t-6 -1.5t-2.5 -7.5v-55q0 -35 -34 -35h-220q-34 0 -34 35v1364q0 35 34 35h220q34 0 34 -35v-422q0 -8 5.5 -10t9.5 4q81 100 233 100q139 0 242.5 -78
t148.5 -209zM731 324q43 78 43 200q0 134 -49 215q-50 78 -143 78q-86 0 -138 -80q-43 -76 -43 -211q0 -128 41 -202q50 -88 140 -88q99 0 149 88z" />
    <glyph glyph-name="c" unicode="c" horiz-adv-x="1099" 
d="M569 -16q-163 0 -282.5 82.5t-171.5 224.5q-35 101 -35 241q0 135 35 238q50 139 170.5 219t283.5 80q165 0 288.5 -82t164.5 -207q12 -30 16 -63q3 -30 -30 -37l-215 -33q-15 -3 -26.5 3.5t-12.5 19.5l-6 28q-14 53 -63.5 88t-117.5 35q-65 0 -110 -32.5t-64 -90.5
q-22 -61 -22 -168q0 -106 20 -168q19 -61 64.5 -96t111.5 -35q64 0 111.5 34t66.5 91l3 11q2 9 13.5 20t26.5 8l216 -33q34 -7 28 -38q-5 -34 -10 -48q-44 -136 -167.5 -214t-285.5 -78z" />
    <glyph glyph-name="d" unicode="d" horiz-adv-x="1140" 
d="M741 1399q0 35 35 35h219q35 0 35 -35v-1364q0 -35 -35 -35h-219q-35 0 -35 35v55q0 7 -4.5 8.5t-9.5 -4.5q-83 -110 -233 -110q-139 0 -247 82.5t-149 218.5q-35 99 -35 245q0 152 39 254q45 131 149 209t243 78q152 0 233 -100q5 -6 9.5 -4t4.5 10v422zM698 324
q41 74 41 202q0 135 -43 211q-52 80 -137 80q-93 0 -143 -78q-49 -81 -49 -215q0 -122 43 -200q50 -88 149 -88q89 0 139 88z" />
    <glyph glyph-name="e" unicode="e" 
d="M614 227q134 6 207 95q25 28 49 4l117 -113q22 -22 4 -49q-67 -84 -172.5 -132t-230.5 -48q-189 0 -313 96.5t-166 263.5q-25 92 -25 191q0 119 22 200q42 152 165.5 244t293.5 92q201 0 318.5 -119.5t152.5 -333.5q10 -77 13 -149q0 -35 -35 -35h-629q-12 0 -12 -12
q7 -44 14 -64q22 -63 81 -97t146 -34zM561 821q-132 0 -170 -121q-11 -37 -12 -51q-3 -12 10 -12h348q14 0 11 12q-3 24 -9 43q-19 61 -64.5 95t-113.5 34z" />
    <glyph glyph-name="f" unicode="f" horiz-adv-x="792" 
d="M696 1055q35 0 35 -35v-174q0 -35 -35 -35h-186q-12 0 -12 -12v-764q0 -35 -35 -35h-219q-35 0 -35 35v764q0 12 -12 12h-109q-35 0 -35 35v174q0 35 35 35h109q12 0 12 12v43q0 187 89.5 258.5t315.5 65.5h68q35 0 35 -35v-146q0 -34 -35 -34h-57q-72 -2 -99.5 -30.5
t-27.5 -101.5v-20q0 -12 12 -12h186z" />
    <glyph glyph-name="g" unicode="g" horiz-adv-x="1138" 
d="M750 1018q0 35 34 35h220q34 0 34 -35v-924q0 -95 -22 -172.5t-59.5 -131t-91 -92.5t-114 -60.5t-132 -31.5t-140.5 -9t-143 10q-31 3 -31 37l8 190q0 17 11 25.5t28 5.5q121 -15 209.5 -3t138.5 70.5t50 163.5q0 6 -4.5 7t-10.5 -5q-76 -82 -225 -82q-62 0 -119.5 14
t-114 44t-101.5 85t-69 130q-30 91 -30 243q0 161 37 261q44 125 145.5 200.5t237.5 75.5q153 0 239 -92q6 -6 10.5 -4t4.5 10v35zM733 367q17 66 17 168q0 101 -19 163q-18 56 -61 89.5t-107 33.5q-61 0 -103.5 -33.5t-64.5 -89.5q-28 -61 -28 -166q0 -114 24 -163
q20 -55 65 -89t109 -34q66 0 109 33.5t59 87.5z" />
    <glyph glyph-name="h" unicode="h" 
d="M655 1069q164 0 264.5 -100.5t100.5 -272.5v-661q0 -35 -35 -35h-219q-35 0 -35 35v602q0 82 -45.5 133t-120.5 51t-122.5 -50.5t-47.5 -133.5v-602q0 -35 -35 -35h-219q-35 0 -35 35v1364q0 35 35 35h219q35 0 35 -35v-438q0 -8 4.5 -10.5t8.5 3.5q84 115 247 115z" />
    <glyph glyph-name="i" unicode="i" horiz-adv-x="532" 
d="M266 1153q-78 0 -127 48t-49 124t49 124t127 48q79 0 127.5 -47.5t48.5 -124.5t-48.5 -124.5t-127.5 -47.5zM158 0q-35 0 -35 35v983q0 35 35 35h219q35 0 35 -35v-983q0 -35 -35 -35h-219z" />
    <glyph glyph-name="j" unicode="j" horiz-adv-x="516" 
d="M264 1147q-77 0 -126.5 49.5t-49.5 122.5q0 71 53 120.5t123 49.5q72 0 125 -49.5t53 -120.5q0 -73 -50.5 -122.5t-127.5 -49.5zM-88 -418q-35 0 -35 35v174q0 33 37 33q114 -3 160.5 36.5t46.5 135.5v1022q0 35 35 35h219q35 0 35 -35v-1018q0 -165 -45.5 -254.5
t-152 -128t-300.5 -35.5z" />
    <glyph glyph-name="k" unicode="k" horiz-adv-x="1091" 
d="M141 0q-35 0 -35 35v1364q0 35 35 35h219q35 0 35 -35v-676q0 -7 5.5 -8.5t9.5 4.5l272 313q21 21 43 21h248q22 0 28.5 -12t-6.5 -31l-252 -316q-5 -6 -2 -16l301 -637q8 -17 1 -29t-27 -12h-232q-29 0 -41 27l-198 469q-5 14 -17 2l-127 -162q-6 -9 -6 -14v-287
q0 -35 -35 -35h-219z" />
    <glyph glyph-name="l" unicode="l" horiz-adv-x="509" 
d="M145 0q-34 0 -34 35v1364q0 35 34 35h220q34 0 34 -35v-1364q0 -35 -34 -35h-220z" />
    <glyph glyph-name="m" unicode="m" horiz-adv-x="1710" 
d="M1274 1069q160 0 250 -97t90 -270v-667q0 -35 -35 -35h-219q-35 0 -35 35v604q0 83 -43 132.5t-115 49.5q-71 0 -116 -49t-45 -131v-606q0 -35 -35 -35h-217q-35 0 -35 35v604q0 83 -44.5 132.5t-117.5 49.5q-66 0 -109.5 -39t-52.5 -108v-639q0 -35 -35 -35h-219
q-35 0 -35 35v983q0 35 35 35h219q35 0 35 -35v-66q0 -8 5.5 -9.5t9.5 5.5q84 121 258 121q102 0 177.5 -42.5t117.5 -121.5q3 -7 8 -6.5t8 6.5q46 82 122.5 123t172.5 41z" />
    <glyph glyph-name="n" unicode="n" 
d="M655 1069q164 0 264.5 -100.5t100.5 -272.5v-661q0 -35 -35 -35h-219q-35 0 -35 35v602q0 82 -45.5 133t-120.5 51t-122.5 -50.5t-47.5 -133.5v-602q0 -35 -35 -35h-219q-35 0 -35 35v983q0 35 35 35h219q35 0 35 -35v-57q0 -8 4.5 -10.5t8.5 3.5q84 115 247 115z" />
    <glyph glyph-name="o" unicode="o" horiz-adv-x="1140" 
d="M573 -16q-174 0 -296.5 89.5t-167.5 245.5q-29 98 -29 209q0 122 31 217q46 152 168 238t296 86q168 0 287.5 -85.5t167.5 -235.5q31 -98 31 -216q0 -103 -27 -206q-46 -159 -168 -250.5t-293 -91.5zM573 231q66 0 113 41t68 113q16 55 16 143q0 87 -16 146
q-21 70 -68 108.5t-117 38.5q-68 0 -114.5 -39t-67.5 -108q-16 -59 -16 -146q0 -84 16 -143q21 -72 68.5 -113t117.5 -41z" />
    <glyph glyph-name="p" unicode="p" horiz-adv-x="1144" 
d="M1049 768q34 -96 34 -246q0 -152 -39 -254q-45 -131 -148.5 -208.5t-242.5 -77.5q-152 0 -233 100q-4 6 -9 4t-5 -10v-422q0 -35 -35 -35h-219q-35 0 -35 35v1364q0 35 35 35h219q35 0 35 -35v-55q0 -8 5 -9.5t9 4.5q83 111 233 111q139 0 247 -82.5t149 -218.5zM731 313
q49 81 49 215q0 123 -43 201q-50 88 -149 88q-89 0 -139 -88q-41 -74 -41 -203q0 -135 43 -211q51 -79 137 -79q93 0 143 77z" />
    <glyph glyph-name="q" unicode="q" horiz-adv-x="1144" 
d="M741 1018q0 35 35 35h219q35 0 35 -35v-1364q0 -35 -35 -35h-219q-35 0 -35 35v422q0 8 -4.5 10t-9.5 -4q-81 -100 -233 -100q-139 0 -243 77.5t-149 208.5q-39 102 -39 254q0 147 35 246q41 136 149 218.5t247 82.5q150 0 233 -111q5 -6 9.5 -4.5t4.5 9.5v55zM696 315
q43 76 43 211q0 129 -41 203q-50 88 -139 88q-99 0 -149 -88q-43 -78 -43 -201q0 -134 49 -215q50 -77 143 -77q86 0 137 79z" />
    <glyph glyph-name="r" unicode="r" horiz-adv-x="784" 
d="M631 1067q63 0 108 -25q26 -12 19 -43l-39 -215q-3 -18 -11.5 -21.5t-29.5 -0.5q-44 13 -107 4q-74 -6 -125 -54.5t-51 -127.5v-549q0 -35 -35 -35h-219q-35 0 -35 35v983q0 35 35 35h219q35 0 35 -35v-64q0 -8 4.5 -10t10.5 4q81 119 221 119z" />
    <glyph glyph-name="s" unicode="s" horiz-adv-x="1030" 
d="M526 -14q-207 0 -329.5 85t-122.5 220v10q0 35 35 35h206q35 0 35 -12v-15q0 -45 49.5 -76.5t124.5 -31.5q70 0 113 27t43 69q0 29 -28.5 48.5t-66 29.5t-102 27.5t-110.5 35.5q-48 16 -84 31.5t-77 41.5t-67 55.5t-43.5 73.5t-17.5 97q0 152 118.5 241t311.5 89
q197 0 317.5 -92.5t120.5 -239.5q0 -24 -34 -24h-201q-35 0 -35 12v12q0 46 -45 76.5t-121 30.5q-68 0 -112 -24.5t-44 -67.5q0 -24 15 -41t46.5 -29.5t62.5 -20.5t83 -21t88 -24q54 -16 95.5 -32t85 -42t71.5 -57t46 -76t18 -100q0 -152 -121.5 -236.5t-323.5 -84.5z" />
    <glyph glyph-name="t" unicode="t" horiz-adv-x="778" 
d="M711 856q0 -35 -35 -35h-184q-13 0 -13 -12v-424q0 -67 28 -99t89 -32h57q35 0 35 -35v-176q0 -34 -35 -37q-78 -4 -112 -4q-84 0 -142 11.5t-104.5 40.5t-69.5 83t-24 135v537q0 12 -13 12h-104q-35 0 -35 35v162q0 35 35 35h104q13 0 13 12v231q0 35 35 35h208
q35 0 35 -35v-231q0 -12 13 -12h184q35 0 35 -35v-162z" />
    <glyph glyph-name="u" unicode="u" horiz-adv-x="1116" 
d="M721 1018q0 35 35 35h219q35 0 35 -35v-983q0 -35 -35 -35h-219q-35 0 -35 35v55q0 7 -4.5 8.5t-9.5 -4.5q-79 -108 -252 -108q-156 0 -256.5 93.5t-100.5 264.5v674q0 35 35 35h217q35 0 35 -35v-602q0 -83 44.5 -134t121.5 -51q70 0 115.5 42t54.5 110v635z" />
    <glyph glyph-name="v" unicode="v" horiz-adv-x="1064" 
d="M408 0q-29 0 -39 29l-318 985q-6 17 2 28t27 11h242q28 0 38 -31l164 -614q2 -8 9 -8t8 8l164 614q10 31 38 31l242 -2q19 0 27 -11t2 -28l-316 -983q-10 -29 -41 -29h-249z" />
    <glyph glyph-name="w" unicode="w" horiz-adv-x="1603" 
d="M379 0q-29 0 -39 29l-289 985q-9 39 29 39h225q33 0 39 -31l141 -606q2 -8 8.5 -8.5t8.5 8.5l151 606q6 31 39 31h201q32 0 39 -31l155 -608q1 -9 8 -9t9 9l156 608q7 31 38 31l226 -2q38 0 28 -39l-292 -983q-10 -29 -39 -29h-230q-29 0 -39 29l-153 536q-2 5 -5.5 7
t-7 0.5t-4.5 -7.5l-135 -534q-7 -31 -39 -31h-229z" />
    <glyph glyph-name="x" unicode="x" horiz-adv-x="1101" 
d="M80 0q-22 0 -28.5 13t5.5 30l320 475q6 8 0 17l-320 475q-12 17 -5.5 30t28.5 13h233q25 0 41 -23l181 -272q3 -5 8 -5.5t8 5.5l178 272q16 23 41 23h250q22 0 28 -13t-6 -30l-317 -475q-6 -9 0 -17l317 -475q12 -17 6 -30t-28 -13h-234q-25 0 -41 23l-178 272q-3 6 -8 6
t-8 -6l-178 -272q-16 -23 -41 -23h-252z" />
    <glyph glyph-name="y" unicode="y" horiz-adv-x="1034" 
d="M100 -408q-14 0 -14 35v168q0 35 12 35h13q126 0 181 32t79 130q3 10 0 16l-330 1006q-6 17 2 28t27 11h235q29 0 39 -29l168 -610q2 -8 8 -8t8 8l160 608q7 31 39 31h236q19 0 26.5 -11t1.5 -28l-350 -1053q-22 -64 -40.5 -107.5t-42.5 -85t-51.5 -68t-64 -49t-84 -34.5
t-107 -18.5t-136.5 -6.5h-15z" />
    <glyph glyph-name="z" unicode="z" horiz-adv-x="942" 
d="M84 0q-35 0 -35 35v203q0 23 17 43l454 497q11 15 -6 15h-418q-35 0 -35 34v191q0 35 35 35h746q35 0 35 -35v-201q0 -23 -17 -43l-469 -498q-11 -14 6 -14h455q35 0 35 -35v-192q0 -35 -35 -35h-768z" />
    <glyph glyph-name="braceleft" unicode="{" horiz-adv-x="770" 
d="M487 -301q-132 0 -200 64t-68 190v424q0 84 -28 127.5t-87 54.5q-32 3 -32 35v162q0 32 32 35q59 11 87 54t28 126v415q0 124 68 188t200 64h177q34 0 34 -34v-179q0 -34 -34 -34h-46q-50 0 -80 -34.5t-30 -94.5v-330q0 -99 -28.5 -159t-88.5 -91q-14 -6 0 -14
q60 -31 88.5 -92t28.5 -160v-338q0 -61 30 -95t80 -34h46q34 0 34 -35v-180q0 -35 -34 -35h-177z" />
    <glyph glyph-name="bar" unicode="|" horiz-adv-x="415" 
d="M98 -164q-35 0 -35 35v1651q0 34 35 34h219q35 0 35 -34v-1651q0 -35 -35 -35h-219z" />
    <glyph glyph-name="braceright" unicode="}" horiz-adv-x="770" 
d="M283 -301h-177q-34 0 -34 35v180q0 35 34 35h46q50 0 80 34t30 95v338q0 99 28.5 160t88.5 92q14 8 0 14q-60 31 -88.5 91t-28.5 159v330q0 60 -30 94.5t-80 34.5h-46q-34 0 -34 34v179q0 34 34 34h177q132 0 200 -64t68 -188v-415q0 -83 28 -126t87 -54q32 -3 32 -35
v-162q0 -32 -32 -35q-59 -11 -87 -54.5t-28 -127.5v-424q0 -126 -68 -190t-200 -64z" />
    <glyph glyph-name="asciitilde" unicode="~" horiz-adv-x="1093" 
d="M729 412q-87 0 -180 55q-105 61 -170 61q-80 0 -129 -65q-18 -27 -47 -8l-119 80q-26 19 -14 45q37 88 119.5 143t179.5 55q80 0 172 -53q8 -4 32.5 -18t35 -19.5t30 -14t36 -11.5t34.5 -3q64 0 112 66q22 28 49 10l140 -90q29 -18 14 -45q-40 -85 -120.5 -136.5
t-174.5 -51.5z" />
    <glyph glyph-name="uni00A0" unicode="&#xa0;" horiz-adv-x="409" 
 />
    <glyph glyph-name="exclamdown" unicode="&#xa1;" horiz-adv-x="708" 
d="M350 1450q81 0 135 -52t54 -126q0 -72 -57.5 -124t-131.5 -52q-73 0 -129.5 52t-56.5 124q0 75 52.5 126.5t133.5 51.5zM238 926q0 35 34 35h162q37 0 37 -35l27 -873q0 -35 -33 -35h-219q-33 0 -33 35z" />
    <glyph glyph-name="cent" unicode="&#xa2;" horiz-adv-x="1099" 
d="M745 541l3 10q2 9 13.5 20.5t26.5 8.5l216 -33q34 -7 28 -39q-5 -33 -10 -47q-35 -112 -127 -186.5t-217 -96.5q-12 -3 -12 -14l6 -127q3 -35 -33 -35h-174q-33 0 -33 35l6 137q0 9 -10 12q-112 29 -193.5 104.5t-119.5 184.5q-35 101 -35 242q0 134 35 237
q37 106 118 180t195 103q10 3 10 12l-6 135q0 35 33 35h174q36 0 33 -35l-6 -127q0 -11 12 -14q127 -24 218.5 -99.5t125.5 -178.5q12 -29 16 -64q3 -30 -30 -37l-215 -33q-15 -3 -26.5 3.5t-12.5 19.5l-6 29q-14 53 -63.5 88t-117.5 35q-65 0 -110 -32.5t-64 -90.5
q-22 -61 -22 -168q0 -106 20 -168q19 -61 64.5 -96t111.5 -35q64 0 111.5 34t66.5 91z" />
    <glyph glyph-name="sterling" unicode="&#xa3;" horiz-adv-x="1255" 
d="M586 455q0 -116 -74 -193q-10 -14 6 -14h641q35 0 35 -35v-178q0 -35 -35 -35h-934q-35 0 -35 35v186q0 25 23 41q84 62 84 193v120q0 13 -12 13h-125q-35 0 -35 35v163q0 35 35 35h125q12 0 12 13v170q0 207 119.5 323.5t324.5 122.5q170 4 283 -78t164 -233
q12 -35 -25 -41l-200 -37q-31 -6 -43 24q-49 120 -164 117q-79 -2 -124.5 -48.5t-45.5 -143.5v-176q0 -13 12 -13h360q35 0 35 -35v-163q0 -35 -35 -35h-360q-12 0 -12 -13v-120z" />
    <glyph glyph-name="currency" unicode="&#xa4;" horiz-adv-x="1175" 
d="M1032 623q0 -115 -51 -209q-6 -11 2 -19l127 -127q25 -25 -2 -49l-135 -115q-25 -22 -49 2l-115 115q-7 7 -18 2q-94 -51 -209 -51q-112 0 -201 47q-12 3 -19 -4l-110 -111q-23 -23 -49 0l-135 115q-26 23 0 49l116 117q7 7 2 18q-57 102 -57 220q0 114 51 208
q6 11 -2 19l-123 123q-26 26 0 49l135 117q26 22 50 -2l114 -115q8 -8 19 -2q94 51 209 51q118 0 217 -55q11 -5 18 2l121 119q24 24 49 2l133 -117q27 -24 2 -49l-133 -133q-7 -7 -4 -17q47 -89 47 -200zM377 623q0 -85 60 -145t145 -60q84 0 144 59.5t60 145.5
q0 84 -60 144t-144 60q-85 0 -145 -59.5t-60 -144.5z" />
    <glyph glyph-name="yen" unicode="&#xa5;" horiz-adv-x="1404" 
d="M1247 1434q20 0 27 -12t-2 -29l-346 -695q-6 -14 8 -14h170q35 0 35 -35v-90q0 -35 -35 -35h-242q-12 0 -12 -12v-96q0 -13 12 -13h242q35 0 35 -34v-93q0 -34 -35 -34h-242q-12 0 -12 -13v-192q0 -35 -35 -35h-217q-35 0 -35 35v192q0 13 -12 13h-242q-35 0 -35 34v93
q0 34 35 34h242q12 0 12 13v96q0 12 -12 12h-242q-35 0 -35 35v90q0 35 35 35h172q14 0 8 14l-344 695q-9 17 -2 29t27 12h238q28 0 41 -27l249 -533q3 -6 8.5 -6t8.5 6l250 533q13 27 41 27h241z" />
    <glyph glyph-name="brokenbar" unicode="&#xa6;" horiz-adv-x="415" 
d="M98 823q-35 0 -35 35v664q0 34 35 34h219q35 0 35 -34v-664q0 -35 -35 -35h-219zM98 -164q-35 0 -35 35v664q0 34 35 34h219q35 0 35 -34v-664q0 -35 -35 -35h-219z" />
    <glyph glyph-name="section" unicode="&#xa7;" horiz-adv-x="1017" 
d="M500 -426q-187 0 -294 93.5t-112 252.5l-2 66q0 18 8 26t25 8h219q35 0 35 -26v-27q0 -66 37 -105.5t98 -39.5q57 0 94 36t37 91q0 44 -32.5 77t-69 50t-126.5 51q-17 7 -26 10q-102 38 -162 75t-98 95q-53 82 -53 187q0 115 61 202q44 63 125 99q17 7 2 14
q-80 41 -130 114.5t-50 172.5q0 149 120.5 251.5t305.5 102.5q180 0 297 -100t117 -258v-37q0 -35 -35 -35h-219q-35 0 -35 20v21q0 63 -37 102t-94 39q-56 0 -93.5 -37t-37.5 -94q0 -29 13 -53.5t30.5 -41t51 -33.5t59.5 -27t71 -25q180 -56 254 -135q86 -86 86 -226
q0 -103 -57 -196q-55 -89 -131 -109q-4 -1 -6 -3t-0.5 -4.5t6.5 -4.5q92 -55 137 -125.5t45 -165.5q0 -159 -123 -253.5t-311 -94.5zM508 373q79 0 119 53q24 34 24 86q0 51 -26 88q-41 51 -115 51q-38 0 -70 -16.5t-49 -44.5q-24 -34 -24 -82q0 -49 26 -82q40 -53 115 -53z
" />
    <glyph glyph-name="dieresis" unicode="&#xa8;" horiz-adv-x="759" 
d="M184 1169q-63 0 -104 40t-41 104t41 104.5t104 40.5q64 0 104 -40t40 -105t-40 -104.5t-104 -39.5zM578 1169q-66 0 -106 39.5t-40 104.5t40 105t106 40q64 0 103.5 -40t39.5 -105t-39.5 -104.5t-103.5 -39.5z" />
    <glyph glyph-name="copyright" unicode="&#xa9;" horiz-adv-x="1673" 
d="M836 -16q-210 0 -379.5 95.5t-265 264.5t-95.5 379q0 205 95.5 371.5t265 261t379.5 94.5q211 0 380.5 -94.5t265 -261t95.5 -371.5q0 -210 -95.5 -379t-265 -264.5t-380.5 -95.5zM836 143q165 0 297 74.5t206 207t74 298.5q0 245 -163.5 406t-413.5 161t-414 -161
t-164 -406q0 -166 74.5 -298.5t206.5 -207t297 -74.5zM840 356q-114 0 -183 65t-69 171v256q0 107 69 170t183 63q115 0 182.5 -59.5t67.5 -161.5q0 -14 -35 -14l-84 -2q-35 0 -35 6v8q0 43 -26.5 68.5t-69.5 25.5q-44 0 -70.5 -25.5t-26.5 -68.5v-278q0 -42 26.5 -67.5
t70.5 -25.5q43 0 69.5 26t26.5 67q0 18 35 18l84 -2q35 0 35 -10v-8q0 -100 -69 -161t-181 -61z" />
    <glyph glyph-name="ordfeminine" unicode="&#xaa;" horiz-adv-x="675" 
d="M313 1161h129q13 0 13 13v20q0 54 -35.5 87.5t-95.5 33.5q-40 0 -72.5 -16.5t-44.5 -41.5q-15 -30 -39 -28l-88 8q-39 3 -33 37q15 76 92 126t183 50q126 0 207 -66t81 -165v-439q0 -35 -35 -35h-86q-34 0 -34 31v8q0 8 -4.5 10.5t-10.5 -3.5q-58 -58 -174 -58
q-111 0 -175 52t-64 147q0 105 77 167t209 62zM295 858q68 0 114 37t46 86v47q0 12 -13 12h-106q-150 0 -150 -94q0 -88 109 -88zM27 602q0 35 34 35h531q35 0 35 -35v-90q0 -35 -35 -35h-531q-34 0 -34 35v90z" />
    <glyph glyph-name="guillemotleft" unicode="&#xab;" horiz-adv-x="1042" 
d="M551 260q11 -17 4 -29t-27 -12h-182q-27 0 -41 23l-186 309q-15 25 0 49l186 309q14 23 41 23h182q20 0 27 -12t-4 -29l-186 -307q-6 -8 0 -17zM903 260q11 -17 4.5 -29t-26.5 -12h-183q-27 0 -41 23l-186 309q-15 25 0 49l186 309q14 23 41 23h183q20 0 26.5 -12
t-4.5 -29l-186 -307q-6 -8 0 -17z" />
    <glyph glyph-name="logicalnot" unicode="&#xac;" horiz-adv-x="995" 
d="M59 705q0 34 35 34h807q35 0 35 -34v-408q0 -35 -35 -35h-178q-35 0 -35 35v182q0 13 -12 13h-582q-35 0 -35 34v179z" />
    <glyph glyph-name="uni00AD" unicode="&#xad;" horiz-adv-x="837" 
d="M94 481q-35 0 -35 35v178q0 35 35 35h649q35 0 35 -35v-178q0 -35 -35 -35h-649z" />
    <glyph glyph-name="registered" unicode="&#xae;" horiz-adv-x="911" 
d="M455 1454q178 0 297.5 -116t119.5 -289q0 -181 -119 -300.5t-298 -119.5t-297.5 119.5t-118.5 300.5q0 173 119 289t297 116zM455 741q130 0 216.5 87.5t86.5 220.5q0 125 -87 209.5t-216 84.5t-215 -84.5t-86 -209.5q0 -133 86 -220.5t215 -87.5zM600 1114
q0 -67 -47 -94q-9 -6 -6 -16l39 -107q6 -17 -2 -29t-27 -12h-29q-32 0 -41 29l-32 104q-3 10 -15 10t-12 -12v-96q0 -35 -35 -35h-24q-35 0 -35 35v309q0 35 35 35h110q54 0 87.5 -34.5t33.5 -86.5zM440 1153q-12 0 -12 -12v-58q0 -12 12 -12h25q18 0 29.5 11.5t11.5 29.5
q0 19 -11 30t-30 11h-25z" />
    <glyph glyph-name="macron" unicode="&#xaf;" horiz-adv-x="602" 
d="M35 1184q-35 0 -35 35v124q0 35 35 35h532q35 0 35 -35v-124q0 -35 -35 -35h-532z" />
    <glyph glyph-name="degree" unicode="&#xb0;" horiz-adv-x="770" 
d="M385 965q-145 0 -245.5 100t-100.5 246q0 145 100.5 244.5t245.5 99.5q146 0 246 -99.5t100 -244.5q0 -146 -100 -246t-246 -100zM385 1153q66 0 111 46t45 112q0 67 -45 112t-111 45q-65 0 -111.5 -45t-46.5 -112q0 -66 46.5 -112t111.5 -46z" />
    <glyph glyph-name="plusminus" unicode="&#xb1;" horiz-adv-x="995" 
d="M621 946q0 -12 12 -12h268q35 0 35 -35v-178q0 -35 -35 -35h-268q-12 0 -12 -12v-264q0 -35 -35 -35h-176q-35 0 -35 35v264q0 12 -13 12h-268q-35 0 -35 35v178q0 35 35 35h268q13 0 13 12v271q0 34 35 34h176q35 0 35 -34v-271zM94 0q-35 0 -35 35v178q0 35 35 35h807
q35 0 35 -35v-178q0 -35 -35 -35h-807z" />
    <glyph glyph-name="uni00B2" unicode="&#xb2;" horiz-adv-x="702" 
d="M98 852q-35 0 -35 35v98q0 21 19 43q73 71 258 266q113 120 113 176q0 40 -29 66.5t-74 26.5q-47 0 -75.5 -26.5t-28.5 -68.5v-10q0 -35 -35 -35h-119q-35 0 -35 35v39q7 102 89 163.5t204 61.5q131 0 211 -71.5t80 -175.5q0 -94 -100 -218q-20 -26 -49 -58.5
t-46.5 -50.5t-62 -63.5t-57.5 -58.5q-5 -4 -3 -9t9 -5h289q34 0 34 -35v-90q0 -35 -34 -35h-523z" />
    <glyph glyph-name="uni00B3" unicode="&#xb3;" horiz-adv-x="663" 
d="M596 1270q25 -64 25 -137q0 -74 -27 -136q-31 -73 -100.5 -115t-161.5 -42q-95 0 -166.5 47.5t-104.5 128.5q-14 33 -18 84q-3 35 33 35h119q29 0 36 -33q2 -20 11 -41q23 -60 90 -60q55 0 82 46q20 36 20 90q0 61 -22 98q-24 47 -82 47q-20 0 -43 -10q-32 -16 -49 6
l-56 68q-23 26 4 49l172 141q6 6 4 10t-10 4h-258q-35 0 -35 35v90q0 35 35 35h481q35 0 35 -35v-98q0 -25 -18 -43l-146 -129q-12 -12 9 -16q89 -21 141 -119z" />
    <glyph glyph-name="acute" unicode="&#xb4;" horiz-adv-x="499" 
d="M86 1176q-20 0 -27 11t2 30l101 186q12 24 41 24h207q22 0 28 -13t-6 -30l-131 -186q-16 -22 -43 -22h-172z" />
    <glyph glyph-name="uni00B5" unicode="&#xb5;" horiz-adv-x="1128" 
d="M731 1018q0 35 35 35h219q35 0 35 -35v-983q0 -35 -35 -35h-219q-35 0 -35 35v55q0 7 -4.5 8.5t-9.5 -4.5q-79 -108 -252 -108q-21 0 -57 4q-6 1 -9.5 -3t-3.5 -10v-352q0 -35 -35 -35h-219q-35 0 -35 35v1393q0 35 35 35h219q35 0 35 -35v-602q0 -83 44.5 -134
t121.5 -51q70 0 115.5 42t54.5 110v635z" />
    <glyph glyph-name="paragraph" unicode="&#xb6;" horiz-adv-x="1280" 
d="M559 1434h574q34 0 34 -35v-1774q0 -35 -34 -35h-142q-35 0 -35 35v1592q0 12 -12 12h-194q-13 0 -13 -12v-1592q0 -35 -35 -35h-143q-35 0 -35 35v877q0 12 -12 12q-207 17 -334 142t-127 317q0 203 138 332t370 129z" />
    <glyph glyph-name="periodcentered" unicode="&#xb7;" horiz-adv-x="374" 
d="M172 -8q-81 0 -133.5 51.5t-52.5 126.5q0 72 57 124t129 52q75 0 132.5 -52t57.5 -124q0 -74 -54.5 -126t-135.5 -52z" />
    <glyph glyph-name="cedilla" unicode="&#xb8;" horiz-adv-x="346" 
d="M29 -375q-28 8 -25 41l10 82q6 34 43 25q35 -8 61.5 2.5t35.5 40.5q14 61 -80 143q-19 15 -15.5 28t27.5 13h104q26 0 43 -14q140 -116 107 -250q-15 -54 -53 -86t-85 -39t-90.5 -3t-82.5 17z" />
    <glyph glyph-name="uni00B9" unicode="&#xb9;" horiz-adv-x="397" 
d="M127 1704q19 8 43 8h129q35 0 35 -35v-790q0 -35 -35 -35h-117q-35 0 -35 35v649q0 12 -12 12l-41 -4q-37 -3 -37 33v70q0 27 27 39z" />
    <glyph glyph-name="ordmasculine" unicode="&#xba;" horiz-adv-x="729" 
d="M367 741q-101 0 -176.5 52t-112.5 147q-27 68 -27 158t25 157q34 93 110.5 144t182.5 51q95 0 169 -50.5t109 -142.5q29 -76 29 -157q0 -84 -29 -160q-35 -94 -109.5 -146.5t-170.5 -52.5zM367 899q35 0 63 21.5t43 62.5q16 44 16 115q0 74 -14 110q-36 86 -113 86
q-72 0 -108 -86q-16 -39 -16 -110q0 -74 16 -115q13 -41 43 -62.5t70 -21.5zM88 475q-35 0 -35 35v94q0 35 35 35h561q35 0 35 -35v-94q0 -35 -35 -35h-561z" />
    <glyph glyph-name="guillemotright" unicode="&#xbb;" horiz-adv-x="1042" 
d="M174 219q-20 0 -26.5 12t4.5 29l186 307q6 9 0 17l-186 307q-11 17 -4.5 29t26.5 12h182q27 0 41 -23l187 -309q15 -24 0 -49l-187 -309q-14 -23 -41 -23h-182zM526 219q-20 0 -26.5 12t4.5 29l186 307q6 9 0 17l-186 307q-11 17 -4.5 29t26.5 12h183q27 0 41 -23
l186 -309q15 -24 0 -49l-186 -309q-14 -23 -41 -23h-183z" />
    <glyph glyph-name="onequarter" unicode="&#xbc;" horiz-adv-x="1683" 
d="M334 608q0 -35 -35 -35h-117q-35 0 -35 35v649q0 13 -12 13l-41 -4q-37 -3 -37 32v70q0 27 27 39l43 18q21 9 43 9h129q35 0 35 -35v-791zM1024 1409q16 25 41 25h133q20 0 27.5 -12t-2.5 -29l-799 -1368q-16 -25 -41 -25h-133q-20 0 -27.5 12t2.5 29zM1593 383
q35 0 35 -35v-98q0 -35 -35 -35h-24q-13 0 -13 -12v-168q0 -35 -34 -35h-117q-35 0 -35 35v168q0 12 -12 12h-357q-34 0 -34 35v78q0 22 8 43l207 463q13 26 41 26h120q20 0 27.5 -12t-0.5 -29l-182 -422q-6 -14 10 -14h160q12 0 12 12v121q0 35 35 35h117q34 0 34 -35v-121
q0 -12 13 -12h24z" />
    <glyph glyph-name="onehalf" unicode="&#xbd;" horiz-adv-x="1632" 
d="M334 608q0 -35 -35 -35h-117q-35 0 -35 35v649q0 13 -12 13l-41 -4q-37 -3 -37 32v70q0 27 27 39l43 18q21 9 43 9h129q35 0 35 -35v-791zM1024 1409q16 25 41 25h133q20 0 27.5 -12t-2.5 -29l-799 -1368q-16 -25 -41 -25h-133q-20 0 -27.5 12t2.5 29zM1255 174
q-5 -4 -2.5 -9t9.5 -5h288q35 0 35 -35v-90q0 -35 -35 -35h-522q-35 0 -35 35v98q0 21 19 43q73 71 258 266q112 119 112 176q0 40 -28.5 66.5t-73.5 26.5q-47 0 -75.5 -26.5t-28.5 -68.5v-10q0 -35 -35 -35h-119q-35 0 -35 35v39q7 102 89 163.5t204 61.5q131 0 211 -71.5
t80 -175.5q0 -92 -101 -217q-16 -21 -34.5 -42.5t-43.5 -48.5t-40.5 -43t-49.5 -50.5t-47 -47.5z" />
    <glyph glyph-name="threequarters" unicode="&#xbe;" horiz-adv-x="1869" 
d="M594 725q-31 -73 -101 -115.5t-161 -42.5q-95 0 -166.5 47.5t-104.5 128.5q-14 33 -18 84q-3 35 33 35h119q29 0 36 -33q2 -20 11 -41q22 -59 90 -59q56 0 82 45q20 36 20 90q0 62 -22 99q-24 47 -82 47q-17 0 -43 -11q-32 -16 -49 7l-56 67q-23 26 4 49l172 142
q6 6 4 10t-10 4h-258q-35 0 -35 35v90q0 35 35 35h481q35 0 35 -35v-98q0 -25 -18 -43l-146 -129q-13 -13 5 -17q95 -21 145 -119q25 -64 25 -137t-27 -135zM1210 1409q16 25 41 25h133q20 0 27.5 -12t-2.5 -29l-799 -1368q-16 -25 -41 -25h-133q-20 0 -27 12t3 29z
M1780 383q35 0 35 -35v-98q0 -35 -35 -35h-25q-12 0 -12 -12v-168q0 -35 -35 -35h-117q-35 0 -35 35v168q0 12 -12 12h-356q-35 0 -35 35v78q0 22 8 43l207 463q13 26 41 26h121q20 0 27 -12t-1 -29l-182 -422q-6 -14 10 -14h160q12 0 12 12v121q0 35 35 35h117q35 0 35 -35
v-121q0 -12 12 -12h25z" />
    <glyph glyph-name="questiondown" unicode="&#xbf;" horiz-adv-x="1067" 
d="M557 1028q72 0 123 -48t51 -116q0 -67 -52 -115.5t-124 -48.5q-70 0 -122 48.5t-52 115.5t52.5 115.5t123.5 48.5zM678 569q35 0 35 -34v-56q0 -58 -20 -106.5t-51.5 -82t-70.5 -63t-77.5 -56t-70 -53.5t-51.5 -62t-20 -76q0 -66 49 -106t129 -40q87 0 139 43t52 111v22
q0 33 35 33l219 -8q15 0 25 -7t10 -18v-22q0 -186 -134.5 -302t-351.5 -116q-212 0 -338.5 109t-126.5 290q0 69 20 126t52.5 95.5t71.5 70.5t78.5 58t72 51.5t52.5 58t20 69.5v37q0 34 35 34h217z" />
    <glyph glyph-name="Agrave" unicode="&#xc0;" horiz-adv-x="1374" 
d="M791 1597q9 -19 2 -30t-27 -11h-172q-25 0 -41 23l-131 186q-12 17 -6.5 30t26.5 13h207q29 0 41 -24zM1047 0q-29 0 -39 29l-58 190q-2 10 -12 10h-502q-10 0 -12 -10l-57 -190q-10 -29 -39 -29h-238q-19 0 -27 11t-2 28l437 1366q10 29 39 29h301q29 0 39 -29
l436 -1366q6 -17 -2 -28t-27 -11h-237zM496 467q-3 -14 10 -14h362q14 0 11 14l-185 625q-3 8 -8 8t-8 -8z" />
    <glyph glyph-name="Aacute" unicode="&#xc1;" horiz-adv-x="1374" 
d="M907 1808q22 0 28.5 -13t-5.5 -30l-131 -186q-16 -23 -43 -23h-172q-20 0 -27 11t2 30l100 187q12 24 41 24h207zM1047 0q-29 0 -39 29l-58 190q-2 10 -12 10h-502q-10 0 -12 -10l-57 -190q-10 -29 -39 -29h-238q-19 0 -27 11t-2 28l437 1366q10 29 39 29h301
q29 0 39 -29l436 -1366q6 -17 -2 -28t-27 -11h-237zM496 467q-3 -14 10 -14h362q14 0 11 14l-185 625q-3 8 -8 8t-8 -8z" />
    <glyph glyph-name="Acircumflex" unicode="&#xc2;" horiz-adv-x="1374" 
d="M692 1690q-3 6 -8 6t-8 -6l-76 -117q-16 -23 -41 -23h-151q-22 0 -28.5 13t5.5 30l143 199q14 20 43 20h222q29 0 43 -20l147 -199q12 -17 6 -30t-28 -13h-152q-25 0 -41 23zM1047 0q-29 0 -39 29l-58 190q-2 10 -12 10h-502q-10 0 -12 -10l-57 -190q-10 -29 -39 -29
h-238q-19 0 -27 11t-2 28l437 1366q10 29 39 29h301q29 0 39 -29l436 -1366q6 -17 -2 -28t-27 -11h-237zM496 467q-3 -14 10 -14h362q14 0 11 14l-185 625q-3 8 -8 8t-8 -8z" />
    <glyph glyph-name="Atilde" unicode="&#xc3;" horiz-adv-x="1374" 
d="M608 1640q-49 0 -76 -34q-23 -30 -47 -11l-71 50q-28 21 -13 47q28 67 78 101t109 34q56 0 133 -47q67 -37 98 -37q44 0 70 37q22 28 47 10l74 -49q27 -20 12 -49q-38 -67 -91.5 -101.5t-107.5 -34.5q-56 0 -135 52q-47 32 -80 32zM1047 0q-29 0 -39 29l-58 190
q-2 10 -12 10h-502q-10 0 -12 -10l-57 -190q-10 -29 -39 -29h-238q-19 0 -27 11t-2 28l437 1366q10 29 39 29h301q29 0 39 -29l436 -1366q6 -17 -2 -28t-27 -11h-237zM496 467q-3 -14 10 -14h362q14 0 11 14l-185 625q-3 8 -8 8t-8 -8z" />
    <glyph glyph-name="Adieresis" unicode="&#xc4;" horiz-adv-x="1374" 
d="M487 1550q-63 0 -104 40t-41 104t41 104.5t104 40.5q64 0 104 -40t40 -105q0 -64 -39.5 -104t-104.5 -40zM881 1550q-66 0 -106 39.5t-40 104.5t40 105t106 40q64 0 103.5 -40t39.5 -105t-39.5 -104.5t-103.5 -39.5zM1047 0q-29 0 -39 29l-58 190q-2 10 -12 10h-502
q-10 0 -12 -10l-57 -190q-10 -29 -39 -29h-238q-19 0 -27 11t-2 28l437 1366q10 29 39 29h301q29 0 39 -29l436 -1366q6 -17 -2 -28t-27 -11h-237zM496 467q-3 -14 10 -14h362q14 0 11 14l-185 625q-3 8 -8 8t-8 -8z" />
    <glyph glyph-name="Aring" unicode="&#xc5;" horiz-adv-x="1374" 
d="M684 1528q-97 0 -163 66t-66 161t66 161t163 66q95 0 162 -66t67 -161t-67 -161t-162 -66zM684 1853q-42 0 -70 -28t-28 -70q0 -40 28.5 -68t69.5 -28q40 0 68 28t28 68q0 42 -28 70t-68 28zM1047 0q-29 0 -39 29l-58 190q-2 10 -12 10h-502q-10 0 -12 -10l-57 -190
q-10 -29 -39 -29h-238q-19 0 -27 11t-2 28l437 1366q10 29 39 29h301q29 0 39 -29l436 -1366q6 -17 -2 -28t-27 -11h-237zM496 467q-3 -14 10 -14h362q14 0 11 14l-185 625q-3 8 -8 8t-8 -8z" />
    <glyph glyph-name="AE" unicode="&#xc6;" horiz-adv-x="1966" 
d="M1888 1221q0 -35 -35 -35h-639q-12 0 -12 -12v-314q0 -12 12 -12h410q35 0 35 -35v-178q0 -35 -35 -35h-410q-12 0 -12 -12v-328q0 -12 12 -12h639q35 0 35 -35v-178q0 -35 -35 -35h-905q-35 0 -35 35v182q0 12 -12 12h-412q-11 0 -14 -8l-96 -196q-13 -25 -41 -25h-242
q-20 0 -27.5 12t1.5 29l692 1368q11 25 41 25h1050q35 0 35 -35v-178zM598 467q-6 -14 8 -14h295q12 0 12 12v608q0 9 -5.5 10.5t-8.5 -6.5z" />
    <glyph glyph-name="Ccedilla" unicode="&#xc7;" horiz-adv-x="1245" 
d="M1159 967q0 -10 -33 -13l-219 -14q-37 -3 -37 10v13q0 107 -66 173t-175 66q-110 0 -177 -66t-67 -173v-494q0 -106 67 -172t177 -66q108 0 174.5 66t66.5 172q0 11 9 17.5t26 5.5l219 -11q35 -3 35 -10v-10q0 -196 -123.5 -323.5t-330.5 -149.5q-18 -4 -5 -17
q104 -104 76 -221q-15 -54 -53 -86t-85 -38.5t-90.5 -2.5t-82.5 17q-28 8 -25 41l11 81q6 34 43 25q78 -17 96 43q17 70 -109 166q-8 4 -14 6q-173 41 -272 168t-99 311v473q0 224 146 360t387 136q238 0 384 -130t146 -343v-10z" />
    <glyph glyph-name="Egrave" unicode="&#xc8;" horiz-adv-x="1196" 
d="M723 1622q9 -19 2 -30t-27 -11h-172q-25 0 -41 23l-131 186q-12 17 -6 30t27 13h207q28 0 41 -25zM1120 1221q0 -35 -35 -35h-659q-12 0 -12 -12v-314q0 -12 12 -12h428q35 0 35 -35v-178q0 -35 -35 -35h-428q-12 0 -12 -12v-328q0 -12 12 -12h659q35 0 35 -35v-178
q0 -35 -35 -35h-925q-35 0 -35 35v1364q0 35 35 35h925q35 0 35 -35v-178z" />
    <glyph glyph-name="Eacute" unicode="&#xc9;" horiz-adv-x="1196" 
d="M840 1833q22 0 28 -13t-6 -30l-131 -186q-16 -23 -43 -23h-172q-20 0 -26.5 11t2.5 30l100 186q12 25 41 25h207zM1120 1221q0 -35 -35 -35h-659q-12 0 -12 -12v-314q0 -12 12 -12h428q35 0 35 -35v-178q0 -35 -35 -35h-428q-12 0 -12 -12v-328q0 -12 12 -12h659
q35 0 35 -35v-178q0 -35 -35 -35h-925q-35 0 -35 35v1364q0 35 35 35h925q35 0 35 -35v-178z" />
    <glyph glyph-name="Ecircumflex" unicode="&#xca;" horiz-adv-x="1196" 
d="M625 1714q-3 6 -8.5 6t-8.5 -6l-76 -117q-16 -22 -40 -22h-152q-22 0 -28.5 13t5.5 30l144 199q14 20 43 20h221q29 0 43 -20l147 -199q12 -17 6 -30t-28 -13h-152q-25 0 -41 22zM1120 1221q0 -35 -35 -35h-659q-12 0 -12 -12v-314q0 -12 12 -12h428q35 0 35 -35v-178
q0 -35 -35 -35h-428q-12 0 -12 -12v-328q0 -12 12 -12h659q35 0 35 -35v-178q0 -35 -35 -35h-925q-35 0 -35 35v1364q0 35 35 35h925q35 0 35 -35v-178z" />
    <glyph glyph-name="Edieresis" unicode="&#xcb;" horiz-adv-x="1196" 
d="M420 1575q-64 0 -105 39.5t-41 103.5t41.5 105t104.5 41q64 0 103.5 -40.5t39.5 -105.5q0 -64 -39.5 -103.5t-103.5 -39.5zM813 1575q-66 0 -105.5 39t-39.5 104t39.5 105.5t105.5 40.5q64 0 103.5 -40.5t39.5 -105.5q0 -64 -39 -103.5t-104 -39.5zM1120 1221
q0 -35 -35 -35h-659q-12 0 -12 -12v-314q0 -12 12 -12h428q35 0 35 -35v-178q0 -35 -35 -35h-428q-12 0 -12 -12v-328q0 -12 12 -12h659q35 0 35 -35v-178q0 -35 -35 -35h-925q-35 0 -35 35v1364q0 35 35 35h925q35 0 35 -35v-178z" />
    <glyph glyph-name="Igrave" unicode="&#xcc;" horiz-adv-x="538" 
d="M377 1622q9 -19 2 -30t-27 -11h-172q-25 0 -41 23l-131 186q-12 17 -6 30t27 13h207q28 0 40 -25zM160 0q-35 0 -35 35v1364q0 35 35 35h219q35 0 35 -35v-1364q0 -35 -35 -35h-219z" />
    <glyph glyph-name="Iacute" unicode="&#xcd;" horiz-adv-x="538" 
d="M170 1581q-20 0 -27 11t2 30l101 186q12 25 41 25h207q22 0 28 -13t-6 -30l-131 -186q-16 -23 -43 -23h-172zM160 0q-35 0 -35 35v1364q0 35 35 35h219q35 0 35 -35v-1364q0 -35 -35 -35h-219z" />
    <glyph glyph-name="Icircumflex" unicode="&#xce;" horiz-adv-x="538" 
d="M-6 1575q-22 0 -28.5 13t5.5 30l144 199q14 20 43 20h221q29 0 43 -20l147 -199q12 -17 6 -30t-28 -13h-152q-25 0 -41 22l-75 117q-3 6 -8.5 6t-8.5 -6l-76 -117q-16 -22 -41 -22h-151zM160 0q-35 0 -35 35v1364q0 35 35 35h219q35 0 35 -35v-1364q0 -35 -35 -35h-219z
" />
    <glyph glyph-name="Idieresis" unicode="&#xcf;" horiz-adv-x="538" 
d="M74 1575q-64 0 -105 39.5t-41 103.5t41.5 105t104.5 41q64 0 103.5 -40.5t39.5 -105.5q0 -64 -39.5 -103.5t-103.5 -39.5zM467 1575q-66 0 -105.5 39t-39.5 104t39.5 105.5t105.5 40.5q64 0 103.5 -40.5t39.5 -105.5q0 -64 -39 -103.5t-104 -39.5zM160 0q-35 0 -35 35
v1364q0 35 35 35h219q35 0 35 -35v-1364q0 -35 -35 -35h-219z" />
    <glyph glyph-name="Eth" unicode="&#xd0;" horiz-adv-x="1370" 
d="M766 1434q232 0 372 -119t140 -316v-565q0 -196 -140 -315t-372 -119h-502q-35 0 -35 35v594q0 12 -12 12h-57q-35 0 -35 35v127q0 35 35 35h57q12 0 12 12v549q0 35 35 35h502zM989 481v471q0 106 -58.5 170t-156.5 64h-244q-12 0 -12 -12v-324q0 -12 12 -12h152
q35 0 35 -35v-127q0 -35 -35 -35h-152q-12 0 -12 -12v-369q0 -12 12 -12h246q95 0 153 63.5t60 169.5z" />
    <glyph glyph-name="Ntilde" unicode="&#xd1;" horiz-adv-x="1347" 
d="M799 1583q-57 0 -135 51q-49 33 -80 33q-48 0 -76 -35q-23 -29 -47 -10l-72 49q-27 20 -12 47q28 67 77.5 101t108.5 34q56 0 133 -47q67 -37 99 -37q43 0 69 37q22 28 47 11l74 -50q28 -21 2 -63q-36 -60 -87 -90.5t-101 -30.5zM160 0q-35 0 -35 35v1364q0 35 35 35h211
q27 0 41 -23l512 -852q4 -8 9 -6.5t5 10.5v836q0 35 35 35h215q35 0 35 -35v-1364q0 -35 -35 -35h-209q-25 0 -41 25l-514 860q-4 8 -9 6.5t-5 -10.5l2 -846q0 -35 -35 -35h-217z" />
    <glyph glyph-name="Ograve" unicode="&#xd2;" horiz-adv-x="1271" 
d="M741 1614q9 -19 2.5 -30t-26.5 -11h-172q-25 0 -41 22l-131 187q-12 17 -6.5 30t26.5 13h207q28 0 41 -25zM635 -23q-243 0 -391 143.5t-148 377.5v438q0 231 148 372.5t391 141.5q244 0 392.5 -141.5t148.5 -372.5v-438q0 -234 -148.5 -377.5t-392.5 -143.5zM635 225
q114 0 183 71.5t69 190.5v451q0 120 -69 192t-183 72q-113 0 -181.5 -72t-68.5 -192v-451q0 -118 68.5 -190t181.5 -72z" />
    <glyph glyph-name="Oacute" unicode="&#xd3;" horiz-adv-x="1271" 
d="M535 1573q-20 0 -27 11t2 30l100 186q12 25 41 25h207q22 0 28.5 -13t-5.5 -30l-131 -187q-16 -22 -43 -22h-172zM635 -23q-243 0 -391 143.5t-148 377.5v438q0 231 148 372.5t391 141.5q244 0 392.5 -141.5t148.5 -372.5v-438q0 -234 -148.5 -377.5t-392.5 -143.5z
M635 225q114 0 183 71.5t69 190.5v451q0 120 -69 192t-183 72q-113 0 -181.5 -72t-68.5 -192v-451q0 -118 68.5 -190t181.5 -72z" />
    <glyph glyph-name="Ocircumflex" unicode="&#xd4;" horiz-adv-x="1271" 
d="M358 1567q-22 0 -28 13t6 30l143 198q15 21 43 21h221q28 0 43 -21l148 -198q12 -17 5.5 -30t-28.5 -13h-151q-25 0 -41 22l-76 117q-3 6 -8 6t-8 -6l-76 -117q-16 -22 -41 -22h-152zM635 -23q-243 0 -391 143.5t-148 377.5v438q0 231 148 372.5t391 141.5
q244 0 392.5 -141.5t148.5 -372.5v-438q0 -234 -148.5 -377.5t-392.5 -143.5zM635 225q114 0 183 71.5t69 190.5v451q0 120 -69 192t-183 72q-113 0 -181.5 -72t-68.5 -192v-451q0 -118 68.5 -190t181.5 -72z" />
    <glyph glyph-name="Otilde" unicode="&#xd5;" horiz-adv-x="1271" 
d="M774 1573q-57 0 -135 51q-49 33 -80 33q-48 0 -76 -35q-23 -29 -47 -10l-71 49q-28 21 -13 47q28 67 78 101t109 34q56 0 133 -47q67 -37 98 -37q44 0 70 37q22 28 47 10l74 -49q28 -21 2 -63q-36 -60 -87 -90.5t-102 -30.5zM635 -23q-243 0 -391 143.5t-148 377.5v438
q0 231 148 372.5t391 141.5q244 0 392.5 -141.5t148.5 -372.5v-438q0 -234 -148.5 -377.5t-392.5 -143.5zM635 225q114 0 183 71.5t69 190.5v451q0 120 -69 192t-183 72q-113 0 -181.5 -72t-68.5 -192v-451q0 -118 68.5 -190t181.5 -72z" />
    <glyph glyph-name="Odieresis" unicode="&#xd6;" horiz-adv-x="1271" 
d="M438 1567q-64 0 -104.5 39.5t-40.5 103.5t41 104.5t104 40.5q64 0 104 -40t40 -105q0 -64 -39.5 -103.5t-104.5 -39.5zM831 1567q-66 0 -105.5 39t-39.5 104t39.5 105t105.5 40q64 0 104 -40t40 -105q0 -64 -39.5 -103.5t-104.5 -39.5zM635 -23q-243 0 -391 143.5
t-148 377.5v438q0 231 148 372.5t391 141.5q244 0 392.5 -141.5t148.5 -372.5v-438q0 -234 -148.5 -377.5t-392.5 -143.5zM635 225q114 0 183 71.5t69 190.5v451q0 120 -69 192t-183 72q-113 0 -181.5 -72t-68.5 -192v-451q0 -118 68.5 -190t181.5 -72z" />
    <glyph glyph-name="multiply" unicode="&#xd7;" horiz-adv-x="913" 
d="M829 891q25 -25 0 -49l-190 -191q-8 -8 0 -16l188 -189q25 -24 0 -49l-125 -123q-26 -23 -49 0l-186 187q-8 8 -16 0l-191 -191q-24 -24 -49 0l-127 127q-24 25 0 49l190 191q8 8 0 16l-190 191q-23 23 0 49l123 125q23 26 49 0l193 -193q8 -8 16 0l190 191q25 25 50 0z
" />
    <glyph glyph-name="Oslash" unicode="&#xd8;" horiz-adv-x="1282" 
d="M1016 1339q-4 -11 4 -16q164 -142 164 -387v-438q0 -234 -148.5 -377.5t-392.5 -143.5q-148 0 -270 58q-11 7 -17 -4l-41 -82q-11 -25 -41 -25h-94q-20 0 -27.5 12t1.5 29l82 160q3 9 -3 18q-129 138 -129 355v438q0 231 148 372.5t391 141.5q129 0 227 -39q12 -4 17 6
l37 74q12 25 41 25h94q20 0 27.5 -12t-1.5 -29zM393 487v-12q0 -9 6.5 -11t10.5 7l348 694q8 12 -6 15q-49 22 -109 22q-113 0 -181.5 -72t-68.5 -192v-451zM895 487v451q0 45 -14 96q-2 8 -8 8.5t-9 -6.5l-379 -747q-4 -12 4 -17q65 -47 154 -47q114 0 183 71.5t69 190.5z
" />
    <glyph glyph-name="Ugrave" unicode="&#xd9;" horiz-adv-x="1288" 
d="M752 1624q9 -19 2 -30t-27 -11h-172q-25 0 -41 23l-131 186q-12 17 -6.5 30t26.5 13h207q28 0 41 -25zM645 -16q-238 0 -384 135t-146 356v924q0 35 35 35h219q34 0 34 -35v-926q0 -108 67 -175t175 -67t175 67t67 175v926q0 35 35 35h219q35 0 35 -35v-924
q0 -221 -146.5 -356t-384.5 -135z" />
    <glyph glyph-name="Uacute" unicode="&#xda;" horiz-adv-x="1288" 
d="M545 1583q-20 0 -27 11t2 30l101 186q13 25 41 25h206q22 0 28.5 -13t-5.5 -30l-131 -186q-16 -23 -43 -23h-172zM645 -16q-238 0 -384 135t-146 356v924q0 35 35 35h219q34 0 34 -35v-926q0 -108 67 -175t175 -67t175 67t67 175v926q0 35 35 35h219q35 0 35 -35v-924
q0 -221 -146.5 -356t-384.5 -135z" />
    <glyph glyph-name="Ucircumflex" unicode="&#xdb;" horiz-adv-x="1288" 
d="M369 1577q-22 0 -28.5 13t5.5 30l143 199q14 20 43 20h222q29 0 43 -20l147 -199q12 -17 6 -30t-28 -13h-152q-25 0 -41 22l-76 117q-3 6 -8 6t-8 -6l-76 -117q-16 -22 -41 -22h-151zM645 -16q-238 0 -384 135t-146 356v924q0 35 35 35h219q34 0 34 -35v-926
q0 -108 67 -175t175 -67t175 67t67 175v926q0 35 35 35h219q35 0 35 -35v-924q0 -221 -146.5 -356t-384.5 -135z" />
    <glyph glyph-name="Udieresis" unicode="&#xdc;" horiz-adv-x="1288" 
d="M449 1577q-64 0 -105 39.5t-41 103.5t41.5 105t104.5 41q64 0 103.5 -40.5t39.5 -105.5q0 -64 -39 -103.5t-104 -39.5zM842 1577q-66 0 -106 39t-40 104t40 105.5t106 40.5q64 0 103.5 -40.5t39.5 -105.5q0 -64 -39.5 -103.5t-103.5 -39.5zM645 -16q-238 0 -384 135
t-146 356v924q0 35 35 35h219q34 0 34 -35v-926q0 -108 67 -175t175 -67t175 67t67 175v926q0 35 35 35h219q35 0 35 -35v-924q0 -221 -146.5 -356t-384.5 -135z" />
    <glyph glyph-name="Yacute" unicode="&#xdd;" horiz-adv-x="1263" 
d="M530 1556q-20 0 -26.5 11t2.5 30l100 187q12 24 41 24h207q22 0 28.5 -13t-5.5 -30l-132 -186q-16 -23 -43 -23h-172zM522 2q-35 0 -35 35v506q0 8 -4 16l-413 834q-9 17 -2.5 29t26.5 12h238q28 0 41 -27l250 -533q3 -6 8 -6t8 6l250 533q13 27 41 27h239q20 0 28 -12
t-1 -29l-418 -834q-4 -8 -4 -16v-506q0 -35 -35 -35h-217z" />
    <glyph glyph-name="Thorn" unicode="&#xde;" horiz-adv-x="1189" 
d="M686 1149q202 0 327.5 -121t125.5 -315q0 -190 -133.5 -309t-333.5 -119h-256q-13 0 -13 -13v-237q0 -35 -34 -35h-219q-35 0 -35 35v1364q0 35 35 35h219q34 0 34 -35v-238q0 -12 13 -12h270zM641 518q94 0 151.5 50t57.5 139q0 92 -57.5 143t-151.5 51h-225
q-13 0 -13 -12v-359q0 -12 13 -12h225z" />
    <glyph glyph-name="germandbls" unicode="&#xdf;" horiz-adv-x="1249" 
d="M145 2q-34 0 -34 35v954q0 216 133.5 337.5t367.5 121.5q243 0 385 -106t142 -291q3 -185 -144 -267q-6 -3 -6 -8t6 -8q76 -46 122 -138t46 -210q0 -203 -143.5 -312.5t-429.5 -109.5h-64q-34 0 -34 35v176q0 35 34 35h105q116 0 179.5 54t63.5 151q0 98 -59 151t-168 55
h-100q-35 0 -35 35v158q0 35 35 35h108q92 0 144.5 44.5t50.5 114.5q0 70 -51.5 115t-163.5 45q-96 0 -166 -50t-70 -136v-983q0 -35 -34 -35z" />
    <glyph glyph-name="agrave" unicode="&#xe0;" horiz-adv-x="1081" 
d="M639 1233q9 -19 2 -30t-27 -11h-172q-25 0 -41 22l-131 187q-12 17 -6 30t27 13h207q28 0 41 -25zM528 1069q201 0 330 -100t129 -250v-684q0 -35 -35 -35h-219q-35 0 -35 35v49q0 8 -4 9t-10 -5q-94 -104 -281 -104q-158 0 -254 77.5t-96 229.5q0 157 110.5 244.5
t315.5 87.5h207q12 0 12 12v43q0 67 -41.5 105t-121.5 38q-127 0 -156 -78q-12 -29 -41 -26l-227 28q-16 2 -25 9.5t-8 19.5q15 129 140.5 212t309.5 83zM487 199q88 0 149.5 47t61.5 121v71q0 13 -12 13h-145q-93 0 -146 -35t-53 -99q0 -55 40 -86.5t105 -31.5z" />
    <glyph glyph-name="aacute" unicode="&#xe1;" horiz-adv-x="1081" 
d="M756 1444q22 0 28 -13t-6 -30l-131 -187q-16 -22 -43 -22h-172q-20 0 -26.5 11t2.5 30l100 186q12 25 41 25h207zM528 1069q201 0 330 -100t129 -250v-684q0 -35 -35 -35h-219q-35 0 -35 35v49q0 8 -4 9t-10 -5q-94 -104 -281 -104q-158 0 -254 77.5t-96 229.5
q0 157 110.5 244.5t315.5 87.5h207q12 0 12 12v43q0 67 -41.5 105t-121.5 38q-127 0 -156 -78q-12 -29 -41 -26l-227 28q-16 2 -25 9.5t-8 19.5q15 129 140.5 212t309.5 83zM487 199q88 0 149.5 47t61.5 121v71q0 13 -12 13h-145q-93 0 -146 -35t-53 -99q0 -55 40 -86.5
t105 -31.5z" />
    <glyph glyph-name="acircumflex" unicode="&#xe2;" horiz-adv-x="1081" 
d="M256 1186q-22 0 -28.5 13t5.5 30l144 198q15 21 43 21h221q28 0 43 -21l147 -198q12 -17 6 -30t-28 -13h-152q-25 0 -41 22l-75 117q-3 6 -8.5 6t-8.5 -6l-75 -117q-16 -22 -41 -22h-152zM528 1069q201 0 330 -100t129 -250v-684q0 -35 -35 -35h-219q-35 0 -35 35v49
q0 8 -4 9t-10 -5q-94 -104 -281 -104q-158 0 -254 77.5t-96 229.5q0 157 110.5 244.5t315.5 87.5h207q12 0 12 12v43q0 67 -41.5 105t-121.5 38q-127 0 -156 -78q-12 -29 -41 -26l-227 28q-16 2 -25 9.5t-8 19.5q15 129 140.5 212t309.5 83zM487 199q88 0 149.5 47t61.5 121
v71q0 13 -12 13h-145q-93 0 -146 -35t-53 -99q0 -55 40 -86.5t105 -31.5z" />
    <glyph glyph-name="atilde" unicode="&#xe3;" horiz-adv-x="1081" 
d="M672 1192q-57 0 -135 51q-49 33 -80 33q-48 0 -76 -35q-23 -29 -47 -10l-72 49q-27 20 -12 47q28 67 77.5 101t108.5 34q56 0 133 -47q67 -37 99 -37q43 0 69 37q22 28 47 10l74 -49q28 -21 2 -63q-36 -60 -87 -90.5t-101 -30.5zM528 1069q201 0 330 -100t129 -250v-684
q0 -35 -35 -35h-219q-35 0 -35 35v49q0 8 -4 9t-10 -5q-94 -104 -281 -104q-158 0 -254 77.5t-96 229.5q0 157 110.5 244.5t315.5 87.5h207q12 0 12 12v43q0 67 -41.5 105t-121.5 38q-127 0 -156 -78q-12 -29 -41 -26l-227 28q-16 2 -25 9.5t-8 19.5q15 129 140.5 212
t309.5 83zM487 199q88 0 149.5 47t61.5 121v71q0 13 -12 13h-145q-93 0 -146 -35t-53 -99q0 -55 40 -86.5t105 -31.5z" />
    <glyph glyph-name="adieresis" unicode="&#xe4;" horiz-adv-x="1081" 
d="M336 1186q-64 0 -105 39.5t-41 103.5t41.5 105t104.5 41q64 0 103.5 -40.5t39.5 -105.5t-39.5 -104t-103.5 -39zM729 1186q-66 0 -105.5 39t-39.5 104t39.5 105.5t105.5 40.5q64 0 103.5 -40.5t39.5 -105.5t-39 -104t-104 -39zM528 1069q201 0 330 -100t129 -250v-684
q0 -35 -35 -35h-219q-35 0 -35 35v49q0 8 -4 9t-10 -5q-94 -104 -281 -104q-158 0 -254 77.5t-96 229.5q0 157 110.5 244.5t315.5 87.5h207q12 0 12 12v43q0 67 -41.5 105t-121.5 38q-127 0 -156 -78q-12 -29 -41 -26l-227 28q-16 2 -25 9.5t-8 19.5q15 129 140.5 212
t309.5 83zM487 199q88 0 149.5 47t61.5 121v71q0 13 -12 13h-145q-93 0 -146 -35t-53 -99q0 -55 40 -86.5t105 -31.5z" />
    <glyph glyph-name="aring" unicode="&#xe5;" horiz-adv-x="1081" 
d="M532 1163q-96 0 -162.5 66.5t-66.5 161.5t66 161t163 66q96 0 163 -66t67 -161t-67.5 -161.5t-162.5 -66.5zM532 1294q40 0 68.5 28.5t28.5 68.5q0 42 -28.5 70t-68.5 28q-42 0 -70 -28t-28 -70q0 -40 28.5 -68.5t69.5 -28.5zM528 1069q201 0 330 -100t129 -250v-684
q0 -35 -35 -35h-219q-35 0 -35 35v49q0 8 -4 9t-10 -5q-94 -104 -281 -104q-158 0 -254 77.5t-96 229.5q0 157 110.5 244.5t315.5 87.5h207q12 0 12 12v43q0 67 -41.5 105t-121.5 38q-127 0 -156 -78q-12 -29 -41 -26l-227 28q-16 2 -25 9.5t-8 19.5q15 129 140.5 212
t309.5 83zM487 199q88 0 149.5 47t61.5 121v71q0 13 -12 13h-145q-93 0 -146 -35t-53 -99q0 -55 40 -86.5t105 -31.5z" />
    <glyph glyph-name="ae" unicode="&#xe6;" horiz-adv-x="1718" 
d="M449 -16q-177 0 -286.5 78t-109.5 229q0 150 110.5 238.5t313.5 88.5h207q12 0 12 13v39q0 69 -43 110t-125 41q-58 0 -100 -21t-57 -57q-12 -29 -41 -26l-221 28q-16 2 -25 12t-6 27q20 122 144 203.5t286 81.5q113 0 206.5 -45.5t137.5 -112.5q8 -8 16 0
q41 63 126 110.5t188 47.5q144 0 267.5 -83t166.5 -220q31 -101 33 -295q0 -37 -35 -37h-608q-13 0 -13 -12q0 -10 6 -45q13 -70 75 -105.5t153 -35.5q142 0 211 81q24 30 47 7l108 -103q23 -23 6 -49q-66 -86 -168 -137t-229 -51q-119 0 -213 45.5t-135 115.5q-9 12 -14 7
q-47 -74 -152 -121t-239 -47zM991 631q0 -13 13 -13h339q14 0 11 13q-4 41 -11 61q-15 58 -59.5 93.5t-109.5 35.5t-111.5 -35.5t-61.5 -93.5q-6 -19 -10 -61zM494 193q82 0 142 45t60 124v60q0 12 -12 12h-145q-92 0 -144.5 -31t-52.5 -90q0 -52 41 -86t111 -34z" />
    <glyph glyph-name="ccedilla" unicode="&#xe7;" horiz-adv-x="1099" 
d="M745 356l3 11q2 9 13.5 20t26.5 8l216 -33q34 -7 28 -38q-5 -34 -10 -48q-36 -112 -127.5 -185t-218.5 -97q-7 -1 -8.5 -7t4.5 -10q110 -107 82 -227q-15 -54 -53 -86t-85.5 -38.5t-91 -2.5t-82.5 17q-27 8 -24 41l10 81q6 34 43 25q78 -17 96 43q17 67 -100 160
q-8 4 -14 6q-121 26 -209 102.5t-129 192.5q-35 101 -35 241q0 135 35 238q50 139 170.5 219t283.5 80q165 0 288.5 -82t164.5 -207q12 -30 16 -63q3 -30 -30 -37l-215 -33q-15 -3 -26.5 3.5t-12.5 19.5l-6 28q-14 53 -63.5 88t-117.5 35q-65 0 -110 -32.5t-64 -90.5
q-22 -61 -22 -168q0 -106 20 -168q19 -61 64.5 -96t111.5 -35q64 0 111.5 34t66.5 91z" />
    <glyph glyph-name="egrave" unicode="&#xe8;" 
d="M666 1235q9 -19 2 -30t-27 -11h-172q-25 0 -41 23l-131 186q-12 17 -6.5 30t26.5 13h207q28 0 41 -25zM614 227q134 6 207 95q25 28 49 4l117 -113q22 -22 4 -49q-67 -84 -172.5 -132t-230.5 -48q-189 0 -313 96.5t-166 263.5q-25 92 -25 191q0 119 22 200
q42 152 165.5 244t293.5 92q201 0 318.5 -119.5t152.5 -333.5q10 -77 13 -149q0 -35 -35 -35h-629q-12 0 -12 -12q7 -44 14 -64q22 -63 81 -97t146 -34zM561 821q-132 0 -170 -121q-11 -37 -12 -51q-3 -12 10 -12h348q14 0 11 12q-3 24 -9 43q-19 61 -64.5 95t-113.5 34z
" />
    <glyph glyph-name="eacute" unicode="&#xe9;" 
d="M782 1446q22 0 28.5 -13t-5.5 -30l-131 -186q-16 -23 -43 -23h-172q-20 0 -27 11t2 30l101 186q13 25 40 25h207zM614 227q134 6 207 95q25 28 49 4l117 -113q22 -22 4 -49q-67 -84 -172.5 -132t-230.5 -48q-189 0 -313 96.5t-166 263.5q-25 92 -25 191q0 119 22 200
q42 152 165.5 244t293.5 92q201 0 318.5 -119.5t152.5 -333.5q10 -77 13 -149q0 -35 -35 -35h-629q-12 0 -12 -12q7 -44 14 -64q22 -63 81 -97t146 -34zM561 821q-132 0 -170 -121q-11 -37 -12 -51q-3 -12 10 -12h348q14 0 11 12q-3 24 -9 43q-19 61 -64.5 95t-113.5 34z
" />
    <glyph glyph-name="ecircumflex" unicode="&#xea;" 
d="M567 1327q-3 6 -8 6t-8 -6l-76 -117q-16 -22 -41 -22h-151q-22 0 -28.5 13t5.5 30l143 199q14 20 43 20h222q29 0 43 -20l147 -199q12 -17 6 -30t-28 -13h-152q-25 0 -41 22zM614 227q134 6 207 95q25 28 49 4l117 -113q22 -22 4 -49q-67 -84 -172.5 -132t-230.5 -48
q-189 0 -313 96.5t-166 263.5q-25 92 -25 191q0 119 22 200q42 152 165.5 244t293.5 92q201 0 318.5 -119.5t152.5 -333.5q10 -77 13 -149q0 -35 -35 -35h-629q-12 0 -12 -12q7 -44 14 -64q22 -63 81 -97t146 -34zM561 821q-132 0 -170 -121q-11 -37 -12 -51q-3 -12 10 -12
h348q14 0 11 12q-3 24 -9 43q-19 61 -64.5 95t-113.5 34z" />
    <glyph glyph-name="edieresis" unicode="&#xeb;" 
d="M362 1188q-64 0 -104.5 39.5t-40.5 103.5t41 105t104 41q64 0 104 -40.5t40 -105.5q0 -64 -39.5 -103.5t-104.5 -39.5zM756 1188q-66 0 -106 39t-40 104t40 105.5t106 40.5q64 0 103.5 -40.5t39.5 -105.5t-39.5 -104t-103.5 -39zM614 227q134 6 207 95q25 28 49 4
l117 -113q22 -22 4 -49q-67 -84 -172.5 -132t-230.5 -48q-189 0 -313 96.5t-166 263.5q-25 92 -25 191q0 119 22 200q42 152 165.5 244t293.5 92q201 0 318.5 -119.5t152.5 -333.5q10 -77 13 -149q0 -35 -35 -35h-629q-12 0 -12 -12q7 -44 14 -64q22 -63 81 -97t146 -34z
M561 821q-132 0 -170 -121q-11 -37 -12 -51q-3 -12 10 -12h348q14 0 11 12q-3 24 -9 43q-19 61 -64.5 95t-113.5 34z" />
    <glyph glyph-name="igrave" unicode="&#xec;" horiz-adv-x="493" 
d="M344 1239q9 -19 2 -30t-27 -11h-172q-25 0 -41 23l-131 186q-12 17 -6 30t27 13h207q29 0 41 -25zM135 0q-35 0 -35 35v983q0 35 35 35h219q35 0 35 -35v-983q0 -35 -35 -35h-219z" />
    <glyph glyph-name="iacute" unicode="&#xed;" horiz-adv-x="493" 
d="M137 1198q-20 0 -26.5 11t2.5 30l100 186q13 25 41 25h207q22 0 28 -13t-6 -30l-131 -186q-16 -23 -43 -23h-172zM135 0q-35 0 -35 35v983q0 35 35 35h219q35 0 35 -35v-983q0 -35 -35 -35h-219z" />
    <glyph glyph-name="icircumflex" unicode="&#xee;" horiz-adv-x="493" 
d="M-39 1192q-22 0 -28 13t6 30l143 199q14 20 43 20h221q29 0 43 -20l148 -199q12 -17 5.5 -30t-28.5 -13h-152q-24 0 -40 22l-76 117q-3 6 -8.5 6t-8.5 -6l-75 -117q-16 -22 -41 -22h-152zM135 0q-35 0 -35 35v983q0 35 35 35h219q35 0 35 -35v-983q0 -35 -35 -35h-219z
" />
    <glyph glyph-name="idieresis" unicode="&#xef;" horiz-adv-x="548" 
d="M70 1192q-64 0 -105 39.5t-41 103.5t41.5 105t104.5 41q64 0 103.5 -40.5t39.5 -105.5t-39.5 -104t-103.5 -39zM463 1192q-66 0 -106 39t-40 104t40 105.5t106 40.5q64 0 103.5 -40.5t39.5 -105.5t-39 -104t-104 -39zM164 0q-35 0 -35 35v983q0 35 35 35h219q35 0 35 -35
v-983q0 -35 -35 -35h-219z" />
    <glyph glyph-name="eth" unicode="&#xf0;" horiz-adv-x="1107" 
d="M985 750q29 -132 29 -271q0 -125 -33 -219q-51 -124 -169.5 -200t-274.5 -76q-157 0 -275 74.5t-168 201.5q-33 87 -33 219q0 129 33 217q27 74 83 129t132 78q67 29 169 33t169 -23q6 -3 8.5 0.5t-0.5 10.5q-32 77 -82 159q-7 10 -16 7l-192 -54q-15 -4 -26.5 3.5
t-16.5 23.5l-23 86q-9 31 25 41l127 35q13 3 4 16q-54 64 -140 150q-17 17 -11 30t30 13h225q25 0 43 -21t49 -59.5t45 -55.5q6 -10 17 -6l161 45q15 4 27 -3.5t17 -22.5l22 -86q9 -31 -25 -41l-94 -25q-12 -3 -6 -16q137 -199 170 -393zM700 324q21 52 21 147q0 91 -21 143
q-19 56 -61.5 87.5t-101.5 31.5t-102 -31.5t-62 -87.5q-21 -56 -21 -143q0 -90 23 -147q18 -57 60.5 -90t101.5 -33t101.5 33t61.5 90z" />
    <glyph glyph-name="ntilde" unicode="&#xf1;" 
d="M496 1260q-48 0 -76 -35q-23 -30 -47 -11l-72 50q-27 20 -12 47q28 67 77.5 101t108.5 34q56 0 133 -47q67 -37 99 -37q43 0 69 37q22 28 47 10l74 -49q27 -20 12 -49q-38 -67 -91 -101t-107 -34q-58 0 -136 51q-49 33 -79 33zM655 1069q164 0 264.5 -100.5t100.5 -272.5
v-661q0 -35 -35 -35h-219q-35 0 -35 35v602q0 82 -45.5 133t-120.5 51t-122.5 -50.5t-47.5 -133.5v-602q0 -35 -35 -35h-219q-35 0 -35 35v983q0 35 35 35h219q35 0 35 -35v-57q0 -8 4.5 -10.5t8.5 3.5q84 115 247 115z" />
    <glyph glyph-name="ograve" unicode="&#xf2;" horiz-adv-x="1140" 
d="M676 1233q9 -19 2 -30t-27 -11h-172q-25 0 -41 22l-131 187q-12 17 -6 30t27 13h207q27 0 40 -25zM573 -16q-174 0 -296.5 89.5t-167.5 245.5q-29 98 -29 209q0 122 31 217q46 152 168 238t296 86q168 0 287.5 -85.5t167.5 -235.5q31 -98 31 -216q0 -103 -27 -206
q-46 -159 -168 -250.5t-293 -91.5zM573 231q66 0 113 41t68 113q16 55 16 143q0 87 -16 146q-21 70 -68 108.5t-117 38.5q-68 0 -114.5 -39t-67.5 -108q-16 -59 -16 -146q0 -84 16 -143q21 -72 68.5 -113t117.5 -41z" />
    <glyph glyph-name="oacute" unicode="&#xf3;" horiz-adv-x="1140" 
d="M469 1192q-20 0 -27 11t2 30l101 186q13 25 41 25h207q22 0 28 -13t-6 -30l-131 -187q-16 -22 -43 -22h-172zM573 -16q-174 0 -296.5 89.5t-167.5 245.5q-29 98 -29 209q0 122 31 217q46 152 168 238t296 86q168 0 287.5 -85.5t167.5 -235.5q31 -98 31 -216
q0 -103 -27 -206q-46 -159 -168 -250.5t-293 -91.5zM573 231q66 0 113 41t68 113q16 55 16 143q0 87 -16 146q-21 70 -68 108.5t-117 38.5q-68 0 -114.5 -39t-67.5 -108q-16 -59 -16 -146q0 -84 16 -143q21 -72 68.5 -113t117.5 -41z" />
    <glyph glyph-name="ocircumflex" unicode="&#xf4;" horiz-adv-x="1140" 
d="M293 1186q-22 0 -28.5 13t5.5 30l144 198q15 21 43 21h221q28 0 43 -21l147 -198q12 -17 6 -30t-28 -13h-152q-25 0 -41 22l-75 117q-3 6 -8.5 6t-8.5 -6l-76 -117q-16 -22 -41 -22h-151zM573 -16q-174 0 -296.5 89.5t-167.5 245.5q-29 98 -29 209q0 122 31 217
q46 152 168 238t296 86q168 0 287.5 -85.5t167.5 -235.5q31 -98 31 -216q0 -103 -27 -206q-46 -159 -168 -250.5t-293 -91.5zM573 231q66 0 113 41t68 113q16 55 16 143q0 87 -16 146q-21 70 -68 108.5t-117 38.5q-68 0 -114.5 -39t-67.5 -108q-16 -59 -16 -146
q0 -84 16 -143q21 -72 68.5 -113t117.5 -41z" />
    <glyph glyph-name="otilde" unicode="&#xf5;" horiz-adv-x="1140" 
d="M709 1192q-58 0 -136 51q-49 33 -79 33q-48 0 -76 -35q-23 -29 -47 -10l-72 49q-27 20 -12 47q28 67 77.5 101t108.5 34q56 0 133 -47q67 -37 99 -37q43 0 69 37q22 28 47 10l74 -49q28 -21 2 -63q-36 -60 -87 -90.5t-101 -30.5zM573 -16q-174 0 -296.5 89.5
t-167.5 245.5q-29 98 -29 209q0 122 31 217q46 152 168 238t296 86q168 0 287.5 -85.5t167.5 -235.5q31 -98 31 -216q0 -103 -27 -206q-46 -159 -168 -250.5t-293 -91.5zM573 231q66 0 113 41t68 113q16 55 16 143q0 87 -16 146q-21 70 -68 108.5t-117 38.5
q-68 0 -114.5 -39t-67.5 -108q-16 -59 -16 -146q0 -84 16 -143q21 -72 68.5 -113t117.5 -41z" />
    <glyph glyph-name="odieresis" unicode="&#xf6;" horiz-adv-x="1140" 
d="M373 1186q-64 0 -105 39.5t-41 103.5t41.5 105t104.5 41q64 0 103.5 -40.5t39.5 -105.5t-39 -104t-104 -39zM766 1186q-66 0 -105.5 39t-39.5 104t39.5 105.5t105.5 40.5q64 0 103.5 -40.5t39.5 -105.5t-39.5 -104t-103.5 -39zM573 -16q-174 0 -296.5 89.5t-167.5 245.5
q-29 98 -29 209q0 122 31 217q46 152 168 238t296 86q168 0 287.5 -85.5t167.5 -235.5q31 -98 31 -216q0 -103 -27 -206q-46 -159 -168 -250.5t-293 -91.5zM573 231q66 0 113 41t68 113q16 55 16 143q0 87 -16 146q-21 70 -68 108.5t-117 38.5q-68 0 -114.5 -39t-67.5 -108
q-16 -59 -16 -146q0 -84 16 -143q21 -72 68.5 -113t117.5 -41z" />
    <glyph glyph-name="divide" unicode="&#xf7;" horiz-adv-x="995" 
d="M498 854q-60 0 -101 41t-41 100q0 57 42 98.5t100 41.5q57 0 98 -41.5t41 -98.5q0 -58 -41 -99.5t-98 -41.5zM94 514q-35 0 -35 35v178q0 35 35 35h807q35 0 35 -35v-178q0 -35 -35 -35h-807zM498 160q-60 0 -101 41t-41 100q0 57 42 98t100 41q57 0 98 -41t41 -98
q0 -58 -41 -99.5t-98 -41.5z" />
    <glyph glyph-name="oslash" unicode="&#xf8;" horiz-adv-x="1150" 
d="M1040 748q31 -98 31 -216q0 -103 -27 -206q-46 -159 -167.5 -250.5t-292.5 -91.5q-134 0 -240 53q-9 6 -16 -4l-66 -94q-19 -29 -49 -9l-70 52q-27 20 -8 49l72 102q6 9 0 17q-59 68 -88 169q-29 98 -29 209q0 122 31 217q46 152 168.5 238t296.5 86q121 0 221 -47
q10 -3 16 6l62 90q19 28 49 8l70 -51q27 -20 8 -49l-66 -94q-6 -8 0 -17q63 -69 94 -167zM381 528q0 -63 8 -104q2 -8 7 -8.5t10 6.5l253 369q7 10 -4 16q-32 14 -75 14q-68 0 -115 -39t-68 -108q-16 -59 -16 -146zM764 385q16 55 16 143q0 63 -10 121q-2 8 -6.5 8.5
t-9.5 -6.5l-265 -381q-5 -10 5 -16q41 -23 90 -23q66 0 112.5 41t67.5 113z" />
    <glyph glyph-name="ugrave" unicode="&#xf9;" horiz-adv-x="1116" 
d="M659 1217q9 -19 2.5 -30t-26.5 -11h-172q-25 0 -41 22l-131 186q-12 17 -6.5 30t26.5 13h207q29 0 41 -24zM721 1018q0 35 35 35h219q35 0 35 -35v-983q0 -35 -35 -35h-219q-35 0 -35 35v55q0 7 -4.5 8.5t-9.5 -4.5q-79 -108 -252 -108q-156 0 -256.5 93.5t-100.5 264.5
v674q0 35 35 35h217q35 0 35 -35v-602q0 -83 44.5 -134t121.5 -51q70 0 115.5 42t54.5 110v635z" />
    <glyph glyph-name="uacute" unicode="&#xfa;" horiz-adv-x="1116" 
d="M776 1427q22 0 28.5 -13t-5.5 -30l-131 -186q-16 -22 -43 -22h-172q-20 0 -27 11t2 30l100 186q12 24 41 24h207zM721 1018q0 35 35 35h219q35 0 35 -35v-983q0 -35 -35 -35h-219q-35 0 -35 35v55q0 7 -4.5 8.5t-9.5 -4.5q-79 -108 -252 -108q-156 0 -256.5 93.5
t-100.5 264.5v674q0 35 35 35h217q35 0 35 -35v-602q0 -83 44.5 -134t121.5 -51q70 0 115.5 42t54.5 110v635z" />
    <glyph glyph-name="ucircumflex" unicode="&#xfb;" horiz-adv-x="1116" 
d="M561 1309q-3 6 -8 6t-8 -6l-76 -117q-16 -23 -41 -23h-152q-22 0 -28 13t6 30l143 199q15 21 43 21h222q28 0 43 -21l147 -199q12 -17 5.5 -30t-28.5 -13h-151q-25 0 -41 23zM721 1018q0 35 35 35h219q35 0 35 -35v-983q0 -35 -35 -35h-219q-35 0 -35 35v55q0 7 -4.5 8.5
t-9.5 -4.5q-79 -108 -252 -108q-156 0 -256.5 93.5t-100.5 264.5v674q0 35 35 35h217q35 0 35 -35v-602q0 -83 44.5 -134t121.5 -51q70 0 115.5 42t54.5 110v635z" />
    <glyph glyph-name="udieresis" unicode="&#xfc;" horiz-adv-x="1116" 
d="M356 1169q-63 0 -104 40t-41 104t41 104.5t104 40.5q64 0 104 -40t40 -105t-40 -104.5t-104 -39.5zM750 1169q-66 0 -106 39.5t-40 104.5t40 105t106 40q64 0 103.5 -40t39.5 -105t-39.5 -104.5t-103.5 -39.5zM721 1018q0 35 35 35h219q35 0 35 -35v-983q0 -35 -35 -35
h-219q-35 0 -35 35v55q0 7 -4.5 8.5t-9.5 -4.5q-79 -108 -252 -108q-156 0 -256.5 93.5t-100.5 264.5v674q0 35 35 35h217q35 0 35 -35v-602q0 -83 44.5 -134t121.5 -51q70 0 115.5 42t54.5 110v635z" />
    <glyph glyph-name="yacute" unicode="&#xfd;" horiz-adv-x="1034" 
d="M416 1196q-20 0 -27 11t2 30l101 186q12 25 40 25h207q22 0 28.5 -13t-5.5 -30l-131 -186q-16 -23 -43 -23h-172zM100 -408q-14 0 -14 35v168q0 35 12 35h13q126 0 181 32t79 130q3 10 0 16l-330 1006q-6 17 2 28t27 11h235q29 0 39 -29l168 -610q2 -8 8 -8t8 8l160 608
q7 31 39 31h236q19 0 26.5 -11t1.5 -28l-350 -1053q-22 -64 -40.5 -107.5t-42.5 -85t-51.5 -68t-64 -49t-84 -34.5t-107 -18.5t-136.5 -6.5h-15z" />
    <glyph glyph-name="thorn" unicode="&#xfe;" horiz-adv-x="1114" 
d="M1012 784q39 -102 39 -254q0 -146 -35 -245q-42 -136 -149 -218.5t-246 -82.5q-123 0 -207 77q-6 6 -10.5 5t-4.5 -9v-432q0 -35 -34 -35h-220q-34 0 -34 35v1774q0 35 34 35h220q34 0 34 -35v-393q0 -7 4.5 -9.5t10.5 2.5q78 72 207 72q139 0 242.5 -78t148.5 -209z
M705 324q43 78 43 200q0 133 -50 215q-50 78 -143 78q-85 0 -137 -80l-15 -32q-4 -8 -4 -17v-319q0 -11 2 -17q1 -2 7 -12t8 -16q50 -88 139 -88q100 0 150 88z" />
    <glyph glyph-name="ydieresis" unicode="&#xff;" horiz-adv-x="1034" 
d="M319 1190q-64 0 -104.5 39.5t-40.5 103.5t41 105t104 41q64 0 104 -40.5t40 -105.5q0 -64 -39.5 -103.5t-104.5 -39.5zM713 1190q-66 0 -106 39t-40 104t40 105.5t106 40.5q64 0 103.5 -40.5t39.5 -105.5t-39 -104t-104 -39zM100 -408q-14 0 -14 35v168q0 35 12 35h13
q126 0 181 32t79 130q3 10 0 16l-330 1006q-6 17 2 28t27 11h235q29 0 39 -29l168 -610q2 -8 8 -8t8 8l160 608q7 31 39 31h236q19 0 26.5 -11t1.5 -28l-350 -1053q-22 -64 -40.5 -107.5t-42.5 -85t-51.5 -68t-64 -49t-84 -34.5t-107 -18.5t-136.5 -6.5h-15z" />
    <glyph glyph-name="Amacron" unicode="&#x100;" horiz-adv-x="1374" 
d="M950 1759q35 0 35 -35v-125q0 -34 -35 -34h-532q-35 0 -35 34v125q0 35 35 35h532zM1047 0q-29 0 -39 29l-58 190q-2 10 -12 10h-502q-10 0 -12 -10l-57 -190q-10 -29 -39 -29h-238q-19 0 -27 11t-2 28l437 1366q10 29 39 29h301q29 0 39 -29l436 -1366q6 -17 -2 -28
t-27 -11h-237zM496 467q-3 -14 10 -14h362q14 0 11 14l-185 625q-3 8 -8 8t-8 -8z" />
    <glyph glyph-name="amacron" unicode="&#x101;" horiz-adv-x="1081" 
d="M266 1200q-35 0 -35 35v125q0 35 35 35h533q35 0 35 -35v-125q0 -35 -35 -35h-533zM528 1069q201 0 330 -100t129 -250v-684q0 -35 -35 -35h-219q-35 0 -35 35v49q0 8 -4 9t-10 -5q-94 -104 -281 -104q-158 0 -254 77.5t-96 229.5q0 157 110.5 244.5t315.5 87.5h207
q12 0 12 12v43q0 67 -41.5 105t-121.5 38q-127 0 -156 -78q-12 -29 -41 -26l-227 28q-16 2 -25 9.5t-8 19.5q15 129 140.5 212t309.5 83zM487 199q88 0 149.5 47t61.5 121v71q0 13 -12 13h-145q-93 0 -146 -35t-53 -99q0 -55 40 -86.5t105 -31.5z" />
    <glyph glyph-name="Abreve" unicode="&#x102;" horiz-adv-x="1374" 
d="M684 1505q-98 0 -169 58.5t-85 148.5q-3 37 35 37h82q28 0 37 -33q9 -36 37 -59t63 -23q36 0 64.5 23t37.5 59q9 33 37 33h82q38 0 35 -35q-14 -91 -86 -150t-170 -59zM1047 0q-29 0 -39 29l-58 190q-2 10 -12 10h-502q-10 0 -12 -10l-57 -190q-10 -29 -39 -29h-238
q-19 0 -27 11t-2 28l437 1366q10 29 39 29h301q29 0 39 -29l436 -1366q6 -17 -2 -28t-27 -11h-237zM496 467q-3 -14 10 -14h362q14 0 11 14l-185 625q-3 8 -8 8t-8 -8z" />
    <glyph glyph-name="abreve" unicode="&#x103;" horiz-adv-x="1081" 
d="M532 1141q-98 0 -168.5 58.5t-84.5 148.5q-3 36 34 36h82q29 0 37 -32q9 -36 37 -59t63 -23q36 0 65 23t38 59q8 32 37 32h82q37 0 34 -34q-14 -91 -86 -150t-170 -59zM528 1069q201 0 330 -100t129 -250v-684q0 -35 -35 -35h-219q-35 0 -35 35v49q0 8 -4 9t-10 -5
q-94 -104 -281 -104q-158 0 -254 77.5t-96 229.5q0 157 110.5 244.5t315.5 87.5h207q12 0 12 12v43q0 67 -41.5 105t-121.5 38q-127 0 -156 -78q-12 -29 -41 -26l-227 28q-16 2 -25 9.5t-8 19.5q15 129 140.5 212t309.5 83zM487 199q88 0 149.5 47t61.5 121v71q0 13 -12 13
h-145q-93 0 -146 -35t-53 -99q0 -55 40 -86.5t105 -31.5z" />
    <glyph glyph-name="Aogonek" unicode="&#x104;" horiz-adv-x="1394" 
d="M1122 -184q9 -30 35.5 -40.5t61.5 -2.5q37 9 43 -25l10 -82q3 -33 -25 -41q-39 -13 -82.5 -17t-90.5 3t-85 39t-53 86q-33 134 106 250q15 11 13 14h-8q-29 0 -39 29l-58 190q-2 10 -12 10h-502q-10 0 -12 -10l-57 -190q-10 -29 -39 -29h-238q-19 0 -27 11t-2 28
l437 1366q10 29 39 29h301q29 0 39 -29l436 -1366q6 -17 0 -28t-21 -11h-26q-10 0 -21 -8q-143 -99 -123 -176zM496 467q-3 -14 10 -14h362q14 0 11 14l-185 625q-3 8 -8 8t-8 -8z" />
    <glyph glyph-name="aogonek" unicode="&#x105;" horiz-adv-x="1228" 
d="M965 -227q37 9 43 -25l10 -82q3 -33 -25 -41q-39 -13 -82.5 -17t-90.5 3t-85 39t-53 86q-33 134 106 250q6 4 4 9t-10 5h-49q-35 0 -35 35v49q0 8 -4 9t-10 -5q-94 -104 -281 -104q-158 0 -254 77.5t-96 229.5q0 157 110.5 244.5t315.5 87.5h207q12 0 12 12v43
q0 67 -41.5 105t-121.5 38q-127 0 -156 -78q-12 -29 -41 -26l-227 28q-16 2 -25 12t-6 27q21 125 144 205t304 80q201 0 330 -100t129 -250v-711q0 -12 -2 -14q-6 -8 -37 -35q-94 -82 -80 -143q9 -30 35.5 -40.5t61.5 -2.5zM698 367v71q0 13 -12 13h-145q-93 0 -146 -35
t-53 -99q0 -55 40 -86.5t105 -31.5q88 0 149.5 47t61.5 121z" />
    <glyph glyph-name="Cacute" unicode="&#x106;" horiz-adv-x="1245" 
d="M528 1573q-20 0 -26.5 11t2.5 30l100 186q12 25 41 25h207q22 0 28 -13t-6 -30l-131 -187q-16 -22 -43 -22h-172zM629 -16q-241 0 -387 136.5t-146 360.5v473q0 224 146 360t387 136q238 0 384 -130t146 -343q0 -20 -33 -23l-219 -14q-37 -3 -37 10v13q0 107 -66 173
t-175 66q-110 0 -177 -66t-67 -173v-494q0 -106 67 -172t177 -66q108 0 174.5 66t66.5 172q0 11 9 17.5t26 5.5l219 -11q35 -3 35 -10v-10q0 -215 -146 -346t-384 -131z" />
    <glyph glyph-name="cacute" unicode="&#x107;" horiz-adv-x="1099" 
d="M463 1192q-20 0 -27 11t2 30l101 186q13 25 41 25h206q22 0 28.5 -13t-5.5 -30l-131 -187q-16 -22 -43 -22h-172zM569 -16q-163 0 -282.5 82.5t-171.5 224.5q-35 101 -35 241q0 135 35 238q50 139 170.5 219t283.5 80q165 0 288.5 -82t164.5 -207q12 -30 16 -63
q3 -30 -30 -37l-215 -33q-15 -3 -26.5 3.5t-12.5 19.5l-6 28q-14 53 -63.5 88t-117.5 35q-65 0 -110 -32.5t-64 -90.5q-22 -61 -22 -168q0 -106 20 -168q19 -61 64.5 -96t111.5 -35q64 0 111.5 34t66.5 91l3 11q2 9 13.5 20t26.5 8l216 -33q34 -7 28 -38q-5 -34 -10 -48
q-44 -136 -167.5 -214t-285.5 -78z" />
    <glyph glyph-name="Cdotaccent" unicode="&#x10a;" horiz-adv-x="1245" 
d="M629 1554q-60 0 -96.5 37t-36.5 97t36.5 96.5t96.5 36.5q59 0 95 -36.5t36 -96.5t-36 -97t-95 -37zM629 -16q-241 0 -387 136.5t-146 360.5v473q0 224 146 360t387 136q238 0 384 -130t146 -343q0 -20 -33 -23l-219 -14q-37 -3 -37 10v13q0 107 -66 173t-175 66
q-110 0 -177 -66t-67 -173v-494q0 -106 67 -172t177 -66q108 0 174.5 66t66.5 172q0 11 9 17.5t26 5.5l219 -11q35 -3 35 -10v-10q0 -215 -146 -346t-384 -131z" />
    <glyph glyph-name="cdotaccent" unicode="&#x10b;" horiz-adv-x="1099" 
d="M563 1174q-60 0 -96.5 36.5t-36.5 96.5t36.5 96.5t96.5 36.5q59 0 95 -36.5t36 -96.5t-36 -96.5t-95 -36.5zM569 -16q-163 0 -282.5 82.5t-171.5 224.5q-35 101 -35 241q0 135 35 238q50 139 170.5 219t283.5 80q165 0 288.5 -82t164.5 -207q12 -30 16 -63q3 -30 -30 -37
l-215 -33q-15 -3 -26.5 3.5t-12.5 19.5l-6 28q-14 53 -63.5 88t-117.5 35q-65 0 -110 -32.5t-64 -90.5q-22 -61 -22 -168q0 -106 20 -168q19 -61 64.5 -96t111.5 -35q64 0 111.5 34t66.5 91l3 11q2 9 13.5 20t26.5 8l216 -33q34 -7 28 -38q-5 -34 -10 -48
q-44 -136 -167.5 -214t-285.5 -78z" />
    <glyph glyph-name="Ccaron" unicode="&#x10c;" horiz-adv-x="1245" 
d="M504 1554q-25 0 -41 23l-129 197q-11 17 -5 30t27 13h148q25 0 41 -23l76 -117q3 -6 8 -6t8 6l76 117q16 23 41 23h145q22 0 28.5 -13t-5.5 -30l-134 -197q-16 -23 -40 -23h-244zM629 -16q-241 0 -387 136.5t-146 360.5v473q0 224 146 360t387 136q238 0 384 -130
t146 -343q0 -20 -33 -23l-219 -14q-37 -3 -37 10v13q0 107 -66 173t-175 66q-110 0 -177 -66t-67 -173v-494q0 -106 67 -172t177 -66q108 0 174.5 66t66.5 172q0 11 9 17.5t26 5.5l219 -11q35 -3 35 -10v-10q0 -215 -146 -346t-384 -131z" />
    <glyph glyph-name="ccaron" unicode="&#x10d;" horiz-adv-x="1099" 
d="M438 1174q-25 0 -41 22l-129 197q-11 17 -4.5 30t27.5 13h147q25 0 41 -23l76 -117q3 -6 8 -6t8 6l76 117q16 23 41 23h146q22 0 28 -13t-6 -30l-133 -197q-16 -22 -41 -22h-244zM569 -16q-163 0 -282.5 82.5t-171.5 224.5q-35 101 -35 241q0 135 35 238
q50 139 170.5 219t283.5 80q165 0 288.5 -82t164.5 -207q12 -30 16 -63q3 -30 -30 -37l-215 -33q-15 -3 -26.5 3.5t-12.5 19.5l-6 28q-14 53 -63.5 88t-117.5 35q-65 0 -110 -32.5t-64 -90.5q-22 -61 -22 -168q0 -106 20 -168q19 -61 64.5 -96t111.5 -35q64 0 111.5 34
t66.5 91l3 11q2 9 13.5 20t26.5 8l216 -33q34 -7 28 -38q-5 -34 -10 -48q-44 -136 -167.5 -214t-285.5 -78z" />
    <glyph glyph-name="Dcaron" unicode="&#x10e;" horiz-adv-x="1265" 
d="M489 1544q-24 0 -40 23l-130 194q-11 17 -4.5 30t27.5 13h147q25 0 41 -22l76 -117q3 -6 8.5 -6t8.5 6l75 117q16 22 41 22h146q22 0 28 -13t-6 -30l-133 -194q-16 -23 -41 -23h-244zM160 0q-35 0 -35 35v1364q0 35 35 35h502q232 0 372 -119t140 -316v-565
q0 -196 -140 -315t-372 -119h-502zM414 260q0 -12 12 -12h246q95 0 153 63.5t60 169.5v471q0 106 -58.5 170t-156.5 64h-244q-12 0 -12 -12v-914z" />
    <glyph glyph-name="dcaron" unicode="&#x10f;" horiz-adv-x="1456" 
d="M727 971q5 -6 9.5 -4t4.5 10v422q0 35 35 35h219q35 0 35 -35v-1364q0 -35 -35 -35h-219q-35 0 -35 35v55q0 7 -4.5 8.5t-9.5 -4.5q-83 -110 -233 -110q-139 0 -247 82.5t-149 218.5q-35 99 -35 245q0 152 39 254q45 131 149 209t243 78q152 0 233 -100zM1186 1403
q12 24 41 24h207q22 0 28 -13t-6 -30l-131 -186q-16 -22 -43 -22h-172q-20 0 -27 11t2 30zM698 324q41 74 41 202q0 135 -43 211q-52 80 -137 80q-93 0 -143 -78q-49 -81 -49 -215q0 -122 43 -200q50 -88 149 -88q89 0 139 88z" />
    <glyph glyph-name="Dcroat" unicode="&#x110;" horiz-adv-x="1370" 
d="M766 1434q232 0 372 -119t140 -316v-565q0 -196 -140 -315t-372 -119h-502q-35 0 -35 35v594q0 12 -12 12h-57q-35 0 -35 35v127q0 35 35 35h57q12 0 12 12v549q0 35 35 35h502zM989 481v471q0 106 -58.5 170t-156.5 64h-244q-12 0 -12 -12v-324q0 -12 12 -12h152
q35 0 35 -35v-127q0 -35 -35 -35h-152q-12 0 -12 -12v-369q0 -12 12 -12h246q95 0 153 63.5t60 169.5z" />
    <glyph glyph-name="dcroat" unicode="&#x111;" horiz-adv-x="1228" 
d="M1116 1317q35 0 35 -35v-104q0 -35 -35 -35h-74q-12 0 -12 -13v-1095q0 -35 -35 -35h-219q-35 0 -35 35v55q0 7 -4.5 8.5t-9.5 -4.5q-83 -110 -233 -110q-139 0 -247 82.5t-149 218.5q-35 99 -35 245q0 152 39 254q45 131 149 209t243 78q152 0 233 -100q5 -6 9.5 -4
t4.5 10v153q0 13 -12 13h-268q-35 0 -35 35v104q0 35 35 35h268q12 0 12 12v70q0 35 35 35h219q35 0 35 -35v-70q0 -12 12 -12h74zM698 324q41 74 41 202q0 135 -43 211q-52 80 -137 80q-93 0 -143 -78q-49 -81 -49 -215q0 -122 43 -200q50 -88 149 -88q89 0 139 88z" />
    <glyph glyph-name="Emacron" unicode="&#x112;" horiz-adv-x="1196" 
d="M883 1784q35 0 35 -35v-125q0 -35 -35 -35h-533q-35 0 -35 35v125q0 35 35 35h533zM1120 1221q0 -35 -35 -35h-659q-12 0 -12 -12v-314q0 -12 12 -12h428q35 0 35 -35v-178q0 -35 -35 -35h-428q-12 0 -12 -12v-328q0 -12 12 -12h659q35 0 35 -35v-178q0 -35 -35 -35h-925
q-35 0 -35 35v1364q0 35 35 35h925q35 0 35 -35v-178z" />
    <glyph glyph-name="emacron" unicode="&#x113;" 
d="M825 1397q35 0 35 -35v-125q0 -35 -35 -35h-532q-35 0 -35 35v125q0 35 35 35h532zM614 227q134 6 207 95q25 28 49 4l117 -113q22 -22 4 -49q-67 -84 -172.5 -132t-230.5 -48q-189 0 -313 96.5t-166 263.5q-25 92 -25 191q0 119 22 200q42 152 165.5 244t293.5 92
q201 0 318.5 -119.5t152.5 -333.5q10 -77 13 -149q0 -35 -35 -35h-629q-12 0 -12 -12q7 -44 14 -64q22 -63 81 -97t146 -34zM561 821q-132 0 -170 -121q-11 -37 -12 -51q-3 -12 10 -12h348q14 0 11 12q-3 24 -9 43q-19 61 -64.5 95t-113.5 34z" />
    <glyph glyph-name="Edotaccent" unicode="&#x116;" horiz-adv-x="1196" 
d="M616 1563q-60 0 -96.5 36.5t-36.5 96.5t36.5 96.5t96.5 36.5q59 0 95.5 -36.5t36.5 -96.5t-36.5 -96.5t-95.5 -36.5zM1120 1221q0 -35 -35 -35h-659q-12 0 -12 -12v-314q0 -12 12 -12h428q35 0 35 -35v-178q0 -35 -35 -35h-428q-12 0 -12 -12v-328q0 -12 12 -12h659
q35 0 35 -35v-178q0 -35 -35 -35h-925q-35 0 -35 35v1364q0 35 35 35h925q35 0 35 -35v-178z" />
    <glyph glyph-name="edotaccent" unicode="&#x117;" 
d="M559 1176q-60 0 -96.5 36.5t-36.5 96.5t36.5 96.5t96.5 36.5q59 0 95 -36.5t36 -96.5t-36 -96.5t-95 -36.5zM614 227q134 6 207 95q25 28 49 4l117 -113q22 -22 4 -49q-67 -84 -172.5 -132t-230.5 -48q-189 0 -313 96.5t-166 263.5q-25 92 -25 191q0 119 22 200
q42 152 165.5 244t293.5 92q201 0 318.5 -119.5t152.5 -333.5q10 -77 13 -149q0 -35 -35 -35h-629q-12 0 -12 -12q7 -44 14 -64q22 -63 81 -97t146 -34zM561 821q-132 0 -170 -121q-11 -37 -12 -51q-3 -12 10 -12h348q14 0 11 12q-3 24 -9 43q-19 61 -64.5 95t-113.5 34z
" />
    <glyph glyph-name="Eogonek" unicode="&#x118;" horiz-adv-x="1196" 
d="M1120 1221q0 -35 -35 -35h-659q-12 0 -12 -12v-314q0 -12 12 -12h428q35 0 35 -35v-178q0 -35 -35 -35h-428q-12 0 -12 -12v-328q0 -12 12 -12h659q35 0 35 -35v-178q0 -35 -35 -35h-360q-8 0 -14 -6q-108 -83 -90 -150q18 -60 96 -43q37 9 43 -24l10 -82q3 -33 -25 -41
q-39 -13 -82.5 -17t-90.5 2.5t-85 38.5t-53 86q-30 118 74 222q6 4 4 9t-10 5h-342q-35 0 -35 35v1364q0 35 35 35h925q35 0 35 -35v-178z" />
    <glyph glyph-name="eogonek" unicode="&#x119;" 
d="M614 227q134 6 207 95q25 28 49 4l117 -113q22 -22 4 -49q-106 -134 -295 -170q-6 -2 -14 -6q-124 -93 -107 -164q9 -30 35.5 -40.5t61.5 -2.5q37 9 43 -25l10 -82q3 -33 -25 -41q-39 -13 -82.5 -17t-90.5 3t-85 39t-53 86q-29 127 88 233q4 3 5 6.5t-1.5 6.5t-7.5 4
q-142 27 -235 119t-129 231q-25 92 -25 191q0 119 22 200q42 152 165.5 244t293.5 92q201 0 318.5 -119.5t152.5 -333.5q10 -77 13 -149q0 -35 -35 -35h-629q-12 0 -12 -12q7 -44 14 -64q22 -63 81 -97t146 -34zM561 821q-132 0 -170 -121q-11 -37 -12 -51q-3 -12 10 -12
h348q14 0 11 12q-3 24 -9 43q-19 61 -64.5 95t-113.5 34z" />
    <glyph glyph-name="Ecaron" unicode="&#x11a;" horiz-adv-x="1196" 
d="M776 1585q-16 -22 -41 -22h-243q-25 0 -41 22l-129 197q-11 17 -5 30t27 13h148q24 0 40 -23l76 -116q3 -6 8.5 -6t8.5 6l75 116q16 23 41 23h146q22 0 28 -13t-6 -30zM1120 1221q0 -35 -35 -35h-659q-12 0 -12 -12v-314q0 -12 12 -12h428q35 0 35 -35v-178
q0 -35 -35 -35h-428q-12 0 -12 -12v-328q0 -12 12 -12h659q35 0 35 -35v-178q0 -35 -35 -35h-925q-35 0 -35 35v1364q0 35 35 35h925q35 0 35 -35v-178z" />
    <glyph glyph-name="ecaron" unicode="&#x11b;" 
d="M719 1194q-16 -23 -41 -23h-244q-25 0 -41 23l-129 195q-11 17 -4.5 30t27.5 13h147q25 0 41 -23l76 -117q3 -6 8 -6t8 6l76 117q16 23 41 23h145q22 0 28.5 -13t-5.5 -30zM614 227q134 6 207 95q25 28 49 4l117 -113q22 -22 4 -49q-67 -84 -172.5 -132t-230.5 -48
q-189 0 -313 96.5t-166 263.5q-25 92 -25 191q0 119 22 200q42 152 165.5 244t293.5 92q201 0 318.5 -119.5t152.5 -333.5q10 -77 13 -149q0 -35 -35 -35h-629q-12 0 -12 -12q7 -44 14 -64q22 -63 81 -97t146 -34zM561 821q-132 0 -170 -121q-11 -37 -12 -51q-3 -12 10 -12
h348q14 0 11 12q-3 24 -9 43q-19 61 -64.5 95t-113.5 34z" />
    <glyph glyph-name="Gbreve" unicode="&#x11e;" horiz-adv-x="1243" 
d="M627 1522q-98 0 -169 58.5t-85 148.5q-3 36 35 36h81q29 0 37 -32q9 -35 37.5 -58.5t63.5 -23.5q36 0 64.5 23t37.5 59q8 32 37 32h82q38 0 35 -34q-14 -91 -86 -150t-170 -59zM629 -16q-239 0 -386 138.5t-147 364.5v459q0 227 146.5 365.5t386.5 138.5
q234 0 381 -132.5t147 -330.5v-4q0 -35 -35 -35h-219q-16 0 -25.5 5t-9.5 12v14q0 95 -65 159t-174 64q-110 0 -177 -68.5t-67 -179.5v-475q0 -109 72 -178.5t182 -69.5q107 0 170 56.5t63 156.5v91q0 12 -12 12h-217q-35 0 -35 35v168q0 34 35 34h479q35 0 35 -34v-261
q0 -234 -144 -369.5t-384 -135.5z" />
    <glyph glyph-name="gbreve" unicode="&#x11f;" horiz-adv-x="1138" 
d="M594 1143q-98 0 -169 58.5t-85 148.5q-3 36 35 36h82q29 0 37 -32q9 -36 37 -59t63 -23q36 0 64.5 23t37.5 59q8 32 37 32h82q38 0 35 -34q-14 -91 -86 -150t-170 -59zM750 1018q0 35 34 35h220q34 0 34 -35v-924q0 -95 -22 -172.5t-59.5 -131t-91 -92.5t-114 -60.5
t-132 -31.5t-140.5 -9t-143 10q-31 3 -31 37l8 190q0 17 11 25.5t28 5.5q121 -15 209.5 -3t138.5 70.5t50 163.5q0 6 -4.5 7t-10.5 -5q-76 -82 -225 -82q-62 0 -119.5 14t-114 44t-101.5 85t-69 130q-30 91 -30 243q0 161 37 261q44 125 145.5 200.5t237.5 75.5
q153 0 239 -92q6 -6 10.5 -4t4.5 10v35zM733 367q17 66 17 168q0 101 -19 163q-18 56 -61 89.5t-107 33.5q-61 0 -103.5 -33.5t-64.5 -89.5q-28 -61 -28 -166q0 -114 24 -163q20 -55 65 -89t109 -34q66 0 109 33.5t59 87.5z" />
    <glyph glyph-name="Gdotaccent" unicode="&#x120;" horiz-adv-x="1243" 
d="M627 1554q-60 0 -96.5 37t-36.5 97t36.5 96.5t96.5 36.5q59 0 95 -36.5t36 -96.5t-36 -97t-95 -37zM629 -16q-239 0 -386 138.5t-147 364.5v459q0 227 146.5 365.5t386.5 138.5q234 0 381 -132.5t147 -330.5v-4q0 -35 -35 -35h-219q-16 0 -25.5 5t-9.5 12v14
q0 95 -65 159t-174 64q-110 0 -177 -68.5t-67 -179.5v-475q0 -109 72 -178.5t182 -69.5q107 0 170 56.5t63 156.5v91q0 12 -12 12h-217q-35 0 -35 35v168q0 34 35 34h479q35 0 35 -34v-261q0 -234 -144 -369.5t-384 -135.5z" />
    <glyph glyph-name="gdotaccent" unicode="&#x121;" horiz-adv-x="1138" 
d="M594 1176q-60 0 -96.5 36.5t-36.5 96.5t36.5 96.5t96.5 36.5q59 0 95 -36.5t36 -96.5t-36 -96.5t-95 -36.5zM750 1018q0 35 34 35h220q34 0 34 -35v-924q0 -95 -22 -172.5t-59.5 -131t-91 -92.5t-114 -60.5t-132 -31.5t-140.5 -9t-143 10q-31 3 -31 37l8 190
q0 17 11 25.5t28 5.5q121 -15 209.5 -3t138.5 70.5t50 163.5q0 6 -4.5 7t-10.5 -5q-76 -82 -225 -82q-62 0 -119.5 14t-114 44t-101.5 85t-69 130q-30 91 -30 243q0 161 37 261q44 125 145.5 200.5t237.5 75.5q153 0 239 -92q6 -6 10.5 -4t4.5 10v35zM733 367q17 66 17 168
q0 101 -19 163q-18 56 -61 89.5t-107 33.5q-61 0 -103.5 -33.5t-64.5 -89.5q-28 -61 -28 -166q0 -114 24 -163q20 -55 65 -89t109 -34q66 0 109 33.5t59 87.5z" />
    <glyph glyph-name="uni0122" unicode="&#x122;" horiz-adv-x="1243" 
d="M629 -16q-239 0 -386 138.5t-147 364.5v459q0 227 146.5 365.5t386.5 138.5q234 0 381 -132.5t147 -330.5v-4q0 -35 -35 -35h-219q-16 0 -25.5 5t-9.5 12v14q0 95 -65 159t-174 64q-110 0 -177 -68.5t-67 -179.5v-475q0 -109 72 -178.5t182 -69.5q107 0 170 56.5
t63 156.5v91q0 12 -12 12h-217q-35 0 -35 35v168q0 34 35 34h479q35 0 35 -34v-261q0 -234 -144 -369.5t-384 -135.5zM440 -377q-20 0 -26.5 11t2.5 30l100 186q12 25 41 25h207q22 0 28 -13t-6 -30l-131 -186q-16 -23 -43 -23h-172z" />
    <glyph glyph-name="uni0123" unicode="&#x123;" horiz-adv-x="1138" 
d="M780 1432q20 0 27 -11t-2 -30l-100 -187q-12 -24 -41 -24h-207q-22 0 -28.5 13t5.5 30l131 186q16 23 43 23h172zM750 1018q0 35 34 35h220q34 0 34 -35v-924q0 -95 -22 -172.5t-59.5 -131t-91 -92.5t-114 -60.5t-132 -31.5t-140.5 -9t-143 10q-31 3 -31 37l8 190
q0 17 11 25.5t28 5.5q121 -15 209.5 -3t138.5 70.5t50 163.5q0 6 -4.5 7t-10.5 -5q-76 -82 -225 -82q-62 0 -119.5 14t-114 44t-101.5 85t-69 130q-30 91 -30 243q0 161 37 261q44 125 145.5 200.5t237.5 75.5q153 0 239 -92q6 -6 10.5 -4t4.5 10v35zM733 367q17 66 17 168
q0 101 -19 163q-18 56 -61 89.5t-107 33.5q-61 0 -103.5 -33.5t-64.5 -89.5q-28 -61 -28 -166q0 -114 24 -163q20 -55 65 -89t109 -34q66 0 109 33.5t59 87.5z" />
    <glyph glyph-name="Hbar" unicode="&#x126;" horiz-adv-x="1286" 
d="M1260 1235q34 0 34 -35v-127q0 -35 -34 -35h-72q-12 0 -12 -12v-991q0 -35 -35 -35h-219q-35 0 -35 35v553q0 12 -13 12h-448q-12 0 -12 -12v-553q0 -35 -35 -35h-219q-35 0 -35 35v991q0 12 -12 12h-72q-35 0 -35 35v127q0 35 35 35h72q12 0 12 12v152q0 35 35 35h219
q35 0 35 -35v-152q0 -12 12 -12h448q13 0 13 12v152q0 35 35 35h219q35 0 35 -35v-152q0 -12 12 -12h72zM874 848q13 0 13 12v166q0 12 -13 12h-448q-12 0 -12 -12v-166q0 -12 12 -12h448z" />
    <glyph glyph-name="hbar" unicode="&#x127;" 
d="M655 1069q164 0 264.5 -100.5t100.5 -272.5v-661q0 -35 -35 -35h-219q-35 0 -35 35v602q0 82 -45.5 133t-120.5 51t-122.5 -50.5t-47.5 -133.5v-602q0 -35 -35 -35h-219q-35 0 -35 35v1077q0 12 -12 12h-82q-35 0 -35 35v105q0 34 35 34h82q12 0 12 13v88q0 35 35 35h219
q35 0 35 -35v-88q0 -13 13 -13h260q34 0 34 -34v-105q0 -35 -34 -35h-260q-13 0 -13 -12v-151q0 -8 4.5 -10.5t8.5 3.5q84 115 247 115z" />
    <glyph glyph-name="Imacron" unicode="&#x12a;" horiz-adv-x="538" 
d="M4 1589q-35 0 -35 35v125q0 35 35 35h533q34 0 34 -35v-125q0 -35 -34 -35h-533zM160 0q-35 0 -35 35v1364q0 35 35 35h219q35 0 35 -35v-1364q0 -35 -35 -35h-219z" />
    <glyph glyph-name="imacron" unicode="&#x12b;" horiz-adv-x="493" 
d="M-29 1206q-34 0 -34 35v125q0 35 34 35h533q35 0 35 -35v-125q0 -35 -35 -35h-533zM135 0q-35 0 -35 35v983q0 35 35 35h219q35 0 35 -35v-983q0 -35 -35 -35h-219z" />
    <glyph glyph-name="Iogonek" unicode="&#x12e;" horiz-adv-x="598" 
d="M414 -227q37 9 43 -25l10 -82q3 -33 -25 -41q-39 -13 -82.5 -17t-90.5 3t-85 39t-53 86q-33 134 107 250q6 4 3.5 9t-10.5 5h-32q-35 0 -35 35v1364q0 35 35 35h219q35 0 35 -35v-1372q0 -26 -23 -43q-131 -93 -113 -168q9 -30 35.5 -40.5t61.5 -2.5z" />
    <glyph glyph-name="iogonek" unicode="&#x12f;" horiz-adv-x="528" 
d="M270 1180q-60 0 -96.5 36.5t-36.5 96.5t36.5 96.5t96.5 36.5q59 0 95 -36.5t36 -96.5t-36 -96.5t-95 -36.5zM379 -227q37 9 43 -25l10 -82q3 -33 -24 -41q-39 -13 -82.5 -17t-91 3t-85.5 39t-53 86q-33 134 107 250q6 4 4 9t-10 5h-29q-35 0 -35 35v983q0 35 35 35h219
q35 0 35 -35v-983l-2 -35h-2q-155 -104 -135 -184q18 -60 96 -43z" />
    <glyph glyph-name="Idotaccent" unicode="&#x130;" horiz-adv-x="538" 
d="M270 1563q-60 0 -96.5 36.5t-36.5 96.5t36.5 96.5t96.5 36.5q59 0 95 -36.5t36 -96.5t-36 -96.5t-95 -36.5zM160 0q-35 0 -35 35v1364q0 35 35 35h219q35 0 35 -35v-1364q0 -35 -35 -35h-219z" />
    <glyph glyph-name="dotlessi" unicode="&#x131;" horiz-adv-x="493" 
d="M135 0q-35 0 -35 35v983q0 35 35 35h219q35 0 35 -35v-983q0 -35 -35 -35h-219z" />
    <glyph glyph-name="ij" unicode="&#x133;" horiz-adv-x="1019" 
d="M266 1153q-78 0 -127 48t-49 124t49 124t127 48q79 0 127.5 -47.5t48.5 -124.5t-48.5 -124.5t-127.5 -47.5zM768 1147q-77 0 -126.5 49.5t-49.5 122.5q0 71 53 120.5t123 49.5q72 0 125 -49.5t53 -120.5q0 -73 -50.5 -122.5t-127.5 -49.5zM158 0q-35 0 -35 35v983
q0 35 35 35h219q35 0 35 -35v-983q0 -35 -35 -35h-219zM416 -418q-35 0 -35 35v174q0 33 37 33q114 -3 160.5 36.5t46.5 135.5v1022q0 35 34 35h220q34 0 34 -35v-1018q0 -165 -45 -254.5t-151.5 -128t-300.5 -35.5z" />
    <glyph glyph-name="uni0136" unicode="&#x136;" horiz-adv-x="1282" 
d="M160 0q-35 0 -35 35v1364q0 35 35 35h219q35 0 35 -35v-559q0 -8 5 -10t9 4l467 579q15 21 43 21h248q22 0 27.5 -12t-7.5 -31l-446 -570q-6 -6 0 -16l473 -764q11 -17 4 -29t-27 -12h-247q-27 0 -41 23l-359 581q-7 14 -18 0l-125 -160q-6 -9 -6 -14v-395q0 -35 -35 -35
h-219zM453 -360q-20 0 -27 11t2 30l100 186q12 24 41 24h207q22 0 28.5 -13t-5.5 -30l-131 -186q-16 -22 -43 -22h-172z" />
    <glyph glyph-name="uni0137" unicode="&#x137;" horiz-adv-x="1091" 
d="M141 0q-35 0 -35 35v1364q0 35 35 35h219q35 0 35 -35v-676q0 -7 5.5 -8.5t9.5 4.5l272 313q21 21 43 21h248q22 0 28.5 -12t-6.5 -31l-252 -316q-5 -6 -2 -16l301 -637q8 -17 1 -29t-27 -12h-232q-29 0 -41 27l-198 469q-5 14 -17 2l-127 -162q-6 -9 -6 -14v-287
q0 -35 -35 -35h-219zM379 -360q-20 0 -27 11t2 30l101 186q12 24 41 24h206q22 0 28.5 -13t-5.5 -30l-131 -186q-16 -22 -43 -22h-172z" />
    <glyph glyph-name="Lacute" unicode="&#x139;" horiz-adv-x="1171" 
d="M168 1556q-20 0 -27 11t2 30l101 187q12 24 41 24h207q22 0 28 -13t-6 -30l-131 -186q-16 -23 -43 -23h-172zM160 0q-35 0 -35 35v1364q0 35 35 35h219q35 0 35 -35v-1139q0 -12 12 -12h657q35 0 35 -35v-178q0 -35 -35 -35h-923z" />
    <glyph glyph-name="lacute" unicode="&#x13a;" horiz-adv-x="509" 
d="M156 1556q-20 0 -27 11t2 30l100 187q12 24 41 24h207q22 0 28.5 -13t-5.5 -30l-131 -186q-16 -23 -43 -23h-172zM145 0q-34 0 -34 35v1364q0 35 34 35h220q34 0 34 -35v-1364q0 -35 -34 -35h-220z" />
    <glyph glyph-name="uni013B" unicode="&#x13b;" horiz-adv-x="1171" 
d="M160 0q-35 0 -35 35v1364q0 35 35 35h219q35 0 35 -35v-1139q0 -12 12 -12h657q35 0 35 -35v-178q0 -35 -35 -35h-923zM385 -360q-20 0 -27 11t2 30l101 186q12 24 41 24h207q22 0 28 -13t-6 -30l-131 -186q-16 -22 -43 -22h-172z" />
    <glyph glyph-name="uni013C" unicode="&#x13c;" horiz-adv-x="514" 
d="M145 0q-34 0 -34 35v1364q0 35 34 35h220q34 0 34 -35v-1364q0 -35 -34 -35h-220zM29 -360q-20 0 -27 11t2 30l100 186q12 24 41 24h207q22 0 28.5 -13t-5.5 -30l-131 -186q-16 -22 -43 -22h-172z" />
    <glyph glyph-name="Lcaron" unicode="&#x13d;" horiz-adv-x="1171" 
d="M143 1534q-25 0 -41 22l-129 195q-11 17 -4.5 30t27.5 13h147q25 0 41 -22l76 -117q3 -6 8 -6t8 6l76 117q16 22 41 22h146q22 0 28 -13t-6 -30l-133 -195q-16 -22 -41 -22h-244zM160 0q-35 0 -35 35v1364q0 35 35 35h219q35 0 35 -35v-1139q0 -12 12 -12h657
q35 0 35 -35v-178q0 -35 -35 -35h-923z" />
    <glyph glyph-name="lcaron" unicode="&#x13e;" horiz-adv-x="509" 
d="M131 1534q-25 0 -41 22l-129 195q-11 17 -4.5 30t27.5 13h147q25 0 41 -22l76 -117q3 -6 8 -6t8 6l76 117q16 22 41 22h145q22 0 28.5 -13t-5.5 -30l-133 -195q-16 -22 -41 -22h-244zM145 0q-34 0 -34 35v1364q0 35 34 35h220q34 0 34 -35v-1364q0 -35 -34 -35h-220z" />
    <glyph glyph-name="Lslash" unicode="&#x141;" horiz-adv-x="1171" 
d="M414 260q0 -12 12 -12h657q35 0 35 -35v-178q0 -35 -35 -35h-923q-35 0 -35 35v358q0 8 -4 11t-10 -3l-144 -118q-27 -24 -49 4l-96 112q-22 28 4 50l293 243q6 6 6 15v692q0 35 35 35h219q35 0 35 -35v-438q0 -8 4 -11t10 2l365 303q27 24 49 -4l98 -114q22 -28 -4 -50
l-516 -428q-6 -6 -6 -14v-385z" />
    <glyph glyph-name="lslash" unicode="&#x142;" horiz-adv-x="509" 
d="M690 856q15 -30 -14 -47l-268 -147q-9 -3 -9 -15v-612q0 -35 -34 -35h-220q-34 0 -34 35v446q0 6 -4.5 8.5t-10.5 -0.5l-94 -51q-30 -16 -47 15l-66 122q-16 29 15 48l198 112q9 3 9 15v649q0 35 34 35h220q34 0 34 -35v-481q0 -7 3.5 -10t11.5 1l157 88q31 18 47 -14z
" />
    <glyph glyph-name="Nacute" unicode="&#x143;" horiz-adv-x="1347" 
d="M559 1583q-20 0 -26.5 11t2.5 30l100 186q13 25 41 25h207q22 0 28 -13t-6 -30l-131 -186q-16 -23 -43 -23h-172zM160 0q-35 0 -35 35v1364q0 35 35 35h211q27 0 41 -23l512 -852q4 -8 9 -6.5t5 10.5v836q0 35 35 35h215q35 0 35 -35v-1364q0 -35 -35 -35h-209
q-25 0 -41 25l-514 860q-4 8 -9 6.5t-5 -10.5l2 -846q0 -35 -35 -35h-217z" />
    <glyph glyph-name="nacute" unicode="&#x144;" 
d="M795 1427q22 0 28 -13t-6 -30l-131 -186q-16 -22 -43 -22h-172q-20 0 -27 11t2 30l101 186q12 24 41 24h207zM655 1069q164 0 264.5 -100.5t100.5 -272.5v-661q0 -35 -35 -35h-219q-35 0 -35 35v602q0 82 -45.5 133t-120.5 51t-122.5 -50.5t-47.5 -133.5v-602
q0 -35 -35 -35h-219q-35 0 -35 35v983q0 35 35 35h219q35 0 35 -35v-57q0 -8 4.5 -10.5t8.5 3.5q84 115 247 115z" />
    <glyph glyph-name="uni0145" unicode="&#x145;" horiz-adv-x="1347" 
d="M160 0q-35 0 -35 35v1364q0 35 35 35h211q27 0 41 -23l512 -852q4 -8 9 -6.5t5 10.5v836q0 35 35 35h215q35 0 35 -35v-1364q0 -35 -35 -35h-209q-25 0 -41 25l-514 860q-4 8 -9 6.5t-5 -10.5l2 -846q0 -35 -35 -35h-217zM528 -360q-20 0 -26.5 11t2.5 30l100 186
q12 24 41 24h207q22 0 28 -13t-6 -30l-131 -186q-16 -22 -43 -22h-172z" />
    <glyph glyph-name="uni0146" unicode="&#x146;" 
d="M655 1069q164 0 264.5 -100.5t100.5 -272.5v-661q0 -35 -35 -35h-219q-35 0 -35 35v602q0 82 -45.5 133t-120.5 51t-122.5 -50.5t-47.5 -133.5v-602q0 -35 -35 -35h-219q-35 0 -35 35v983q0 35 35 35h219q35 0 35 -35v-57q0 -8 4.5 -10.5t8.5 3.5q84 115 247 115z
M385 -360q-20 0 -27 11t2 30l101 186q12 24 41 24h207q22 0 28 -13t-6 -30l-131 -186q-16 -22 -43 -22h-172z" />
    <glyph glyph-name="Ncaron" unicode="&#x147;" horiz-adv-x="1347" 
d="M535 1565q-25 0 -41 22l-129 197q-11 17 -5 30t27 13h148q24 0 40 -23l76 -116q3 -6 8.5 -6t8.5 6l75 116q16 23 41 23h146q22 0 28 -13t-6 -30l-133 -197q-16 -22 -41 -22h-243zM160 0q-35 0 -35 35v1364q0 35 35 35h211q27 0 41 -23l512 -852q4 -8 9 -6.5t5 10.5v836
q0 35 35 35h215q35 0 35 -35v-1364q0 -35 -35 -35h-209q-25 0 -41 25l-514 860q-4 8 -9 6.5t-5 -10.5l2 -846q0 -35 -35 -35h-217z" />
    <glyph glyph-name="ncaron" unicode="&#x148;" 
d="M731 1180q-16 -23 -41 -23h-244q-24 0 -40 23l-130 196q-11 17 -4.5 30t27.5 13h147q25 0 41 -22l76 -117q3 -6 8.5 -6t8.5 6l75 117q16 22 41 22h146q22 0 28 -13t-6 -30zM655 1069q164 0 264.5 -100.5t100.5 -272.5v-661q0 -35 -35 -35h-219q-35 0 -35 35v602
q0 82 -45.5 133t-120.5 51t-122.5 -50.5t-47.5 -133.5v-602q0 -35 -35 -35h-219q-35 0 -35 35v983q0 35 35 35h219q35 0 35 -35v-57q0 -8 4.5 -10.5t8.5 3.5q84 115 247 115z" />
    <glyph glyph-name="Eng" unicode="&#x14a;" horiz-adv-x="1361" 
d="M1223 1106q0 -6 8 -14q6 -9 6 -31v-1020q0 -124 -21.5 -201.5t-77.5 -128t-147.5 -69.5t-236.5 -17q-35 0 -35 35v172q0 33 37 33q98 -3 141 28.5t51 106.5q0 8 -4 16l-520 869q-4 8 -9 6.5t-5 -10.5l2 -846q0 -35 -35 -35h-217q-35 0 -35 35v1364q0 35 35 35h211
q27 0 41 -23l512 -852q4 -8 9 -6.5t5 10.5v836q0 35 35 35h215q35 0 35 -35v-293z" />
    <glyph glyph-name="eng" unicode="&#x14b;" horiz-adv-x="1122" 
d="M1020 451q0 -13 4 -13h2v-409q0 -77 -7 -132t-25.5 -104t-50 -80.5t-81.5 -55t-118.5 -34t-161.5 -12.5q-37 0 -37 35v161q0 34 35 37q78 6 113.5 39.5t43.5 104.5q0 12 -2 12h-4v637q0 82 -45.5 133t-120.5 51t-122.5 -50.5t-47.5 -133.5v-602q0 -35 -35 -35h-219
q-35 0 -35 35v983q0 35 35 35h219q35 0 35 -35v-57q0 -8 5.5 -10t9.5 5q82 113 245 113q164 0 264.5 -100.5t100.5 -272.5v-245z" />
    <glyph glyph-name="Omacron" unicode="&#x14c;" horiz-adv-x="1271" 
d="M369 1581q-35 0 -35 35v125q0 35 35 35h532q35 0 35 -35v-125q0 -35 -35 -35h-532zM635 -23q-243 0 -391 143.5t-148 377.5v438q0 231 148 372.5t391 141.5q244 0 392.5 -141.5t148.5 -372.5v-438q0 -234 -148.5 -377.5t-392.5 -143.5zM635 225q114 0 183 71.5t69 190.5
v451q0 120 -69 192t-183 72q-113 0 -181.5 -72t-68.5 -192v-451q0 -118 68.5 -190t181.5 -72z" />
    <glyph glyph-name="omacron" unicode="&#x14d;" horiz-adv-x="1140" 
d="M303 1200q-35 0 -35 35v125q0 35 35 35h533q34 0 34 -35v-125q0 -35 -34 -35h-533zM573 -16q-174 0 -296.5 89.5t-167.5 245.5q-29 98 -29 209q0 122 31 217q46 152 168 238t296 86q168 0 287.5 -85.5t167.5 -235.5q31 -98 31 -216q0 -103 -27 -206q-46 -159 -168 -250.5
t-293 -91.5zM573 231q66 0 113 41t68 113q16 55 16 143q0 87 -16 146q-21 70 -68 108.5t-117 38.5q-68 0 -114.5 -39t-67.5 -108q-16 -59 -16 -146q0 -84 16 -143q21 -72 68.5 -113t117.5 -41z" />
    <glyph glyph-name="Ohungarumlaut" unicode="&#x150;" horiz-adv-x="1271" 
d="M377 1569q-20 0 -27.5 11t0.5 30l86 184q14 27 41 27h189q20 0 26.5 -12t-2.5 -29l-98 -187q-12 -24 -41 -24h-174zM743 1569q-20 0 -26.5 12t2.5 29l98 186q13 25 41 25h174q20 0 27 -11t-2 -30l-101 -187q-12 -24 -41 -24h-172zM635 -23q-243 0 -391 143.5t-148 377.5
v438q0 231 148 372.5t391 141.5q244 0 392.5 -141.5t148.5 -372.5v-438q0 -234 -148.5 -377.5t-392.5 -143.5zM635 225q114 0 183 71.5t69 190.5v451q0 120 -69 192t-183 72q-113 0 -181.5 -72t-68.5 -192v-451q0 -118 68.5 -190t181.5 -72z" />
    <glyph glyph-name="ohungarumlaut" unicode="&#x151;" horiz-adv-x="1140" 
d="M311 1188q-42 0 -26 41l86 184q13 27 41 27h188q20 0 27 -12t-2 -29l-99 -187q-12 -24 -41 -24h-174zM678 1188q-20 0 -27 12t2 29l99 186q12 25 41 25h174q20 0 26.5 -11t-2.5 -30l-100 -187q-12 -24 -41 -24h-172zM573 -16q-174 0 -296.5 89.5t-167.5 245.5
q-29 98 -29 209q0 122 31 217q46 152 168 238t296 86q168 0 287.5 -85.5t167.5 -235.5q31 -98 31 -216q0 -103 -27 -206q-46 -159 -168 -250.5t-293 -91.5zM573 231q66 0 113 41t68 113q16 55 16 143q0 87 -16 146q-21 70 -68 108.5t-117 38.5q-68 0 -114.5 -39t-67.5 -108
q-16 -59 -16 -146q0 -84 16 -143q21 -72 68.5 -113t117.5 -41z" />
    <glyph glyph-name="OE" unicode="&#x152;" horiz-adv-x="1904" 
d="M1829 1221q0 -35 -35 -35h-629q-12 0 -12 -12v-314q0 -12 12 -12h398q34 0 34 -35v-178q0 -35 -34 -35h-398q-12 0 -12 -12v-328q0 -12 12 -12h629q35 0 35 -35v-178q0 -35 -35 -35h-895q-35 0 -35 35v31q0 8 -4 10t-10 -2q-137 -97 -301 -97q-124 0 -227 63.5
t-164.5 180.5t-61.5 264v461q0 220 131.5 362t321.5 142q168 0 301 -94q6 -4 10 -2t4 10v35q0 35 35 35h895q35 0 35 -35v-178zM623 225q108 0 174.5 70.5t66.5 181.5v473q0 111 -66.5 181.5t-174.5 70.5q-105 0 -171.5 -70.5t-66.5 -181.5v-473q0 -111 66.5 -181.5
t171.5 -70.5z" />
    <glyph glyph-name="oe" unicode="&#x153;" horiz-adv-x="1785" 
d="M1292 225q47 0 97.5 23.5t83.5 62.5q22 28 47 6l127 -106q28 -24 6 -49q-142 -178 -398 -178q-215 0 -352 147q-8 8 -16 0q-140 -147 -332 -147q-157 0 -274.5 82t-167.5 223q-33 98 -33 241q0 145 33 240q48 137 166.5 218t275.5 81q193 0 332 -145q8 -8 16 0
q138 145 330 145q161 0 282.5 -84.5t165.5 -218.5q32 -89 35 -303q0 -37 -35 -37h-614q-13 0 -10 -12q2 -18 12 -54q42 -135 223 -135zM717 360q22 54 22 170q0 113 -22 164q-17 59 -60 93t-102 34q-60 0 -102.5 -34t-61.5 -93q-20 -56 -20 -164q0 -106 22 -170
q18 -60 60 -94.5t102 -34.5q59 0 101.5 35.5t60.5 93.5zM1237 821q-64 0 -107 -35t-61 -94q-5 -19 -12 -57q-3 -12 12 -12h340q13 0 10 12q-3 39 -10 57q-18 59 -63 94t-109 35z" />
    <glyph glyph-name="Racute" unicode="&#x154;" horiz-adv-x="1257" 
d="M809 1808q22 0 28 -13t-6 -30l-131 -186q-16 -23 -43 -23h-172q-20 0 -26.5 11t2.5 30l100 187q12 24 41 24h207zM920 0q-28 0 -41 27l-252 557q-3 10 -15 10h-186q-12 0 -12 -12v-547q0 -35 -35 -35h-219q-35 0 -35 35v1366q0 35 35 35h575q198 0 318.5 -119t120.5 -313
q0 -138 -70 -238.5t-193 -142.5q-6 -1 -7.5 -7t1.5 -10l271 -565q9 -17 2 -29t-27 -12h-231zM426 1186q-12 0 -12 -12v-345q0 -12 12 -12h266q87 0 141 50.5t54 131.5q0 83 -54.5 135t-140.5 52h-266z" />
    <glyph glyph-name="racute" unicode="&#x155;" horiz-adv-x="784" 
d="M664 1436q22 0 28 -13t-6 -30l-131 -187q-16 -22 -43 -22h-172q-20 0 -27 11t2 30l101 186q12 25 41 25h207zM631 1067q63 0 108 -25q26 -12 19 -43l-39 -215q-3 -18 -11.5 -21.5t-29.5 -0.5q-44 13 -107 4q-74 -6 -125 -54.5t-51 -127.5v-549q0 -35 -35 -35h-219
q-35 0 -35 35v983q0 35 35 35h219q35 0 35 -35v-64q0 -8 4.5 -10t10.5 4q81 119 221 119z" />
    <glyph glyph-name="uni0156" unicode="&#x156;" horiz-adv-x="1257" 
d="M911 623q-6 -1 -7.5 -7t1.5 -10l271 -565q9 -17 2 -29t-27 -12h-231q-28 0 -41 27l-252 557q-3 10 -15 10h-186q-12 0 -12 -12v-547q0 -35 -35 -35h-219q-35 0 -35 35v1366q0 35 35 35h575q198 0 318.5 -119t120.5 -313q0 -138 -70 -238.5t-193 -142.5zM426 1186
q-12 0 -12 -12v-345q0 -12 12 -12h266q87 0 141 50.5t54 131.5q0 83 -54.5 135t-140.5 52h-266zM428 -360q-20 0 -27 11t2 30l101 186q12 24 41 24h207q22 0 28 -13t-6 -30l-131 -186q-16 -22 -43 -22h-172z" />
    <glyph glyph-name="uni0157" unicode="&#x157;" horiz-adv-x="792" 
d="M631 1067q63 0 108 -25q26 -12 19 -43l-39 -215q-3 -18 -11.5 -21.5t-29.5 -0.5q-44 13 -107 4q-74 -6 -125 -54.5t-51 -127.5v-549q0 -35 -35 -35h-219q-35 0 -35 35v983q0 35 35 35h219q35 0 35 -35v-64q0 -8 4.5 -10t10.5 4q81 119 221 119zM14 -360q-20 0 -26.5 11
t2.5 30l100 186q12 24 41 24h207q22 0 28 -13t-6 -30l-131 -186q-16 -22 -43 -22h-172z" />
    <glyph glyph-name="Rcaron" unicode="&#x158;" horiz-adv-x="1257" 
d="M745 1561q-16 -23 -40 -23h-244q-25 0 -41 23l-129 196q-11 17 -5 30t27 13h148q25 0 41 -22l76 -117q3 -6 8 -6t8 6l76 117q16 22 41 22h145q22 0 28.5 -13t-5.5 -30zM920 0q-28 0 -41 27l-252 557q-3 10 -15 10h-186q-12 0 -12 -12v-547q0 -35 -35 -35h-219
q-35 0 -35 35v1366q0 35 35 35h575q198 0 318.5 -119t120.5 -313q0 -138 -70 -238.5t-193 -142.5q-6 -1 -7.5 -7t1.5 -10l271 -565q9 -17 2 -29t-27 -12h-231zM426 1186q-12 0 -12 -12v-345q0 -12 12 -12h266q87 0 141 50.5t54 131.5q0 83 -54.5 135t-140.5 52h-266z" />
    <glyph glyph-name="rcaron" unicode="&#x159;" horiz-adv-x="784" 
d="M600 1188q-16 -23 -41 -23h-244q-25 0 -41 23l-129 196q-11 17 -4.5 30t27.5 13h147q25 0 41 -22l76 -117q3 -6 8.5 -6t8.5 6l75 117q16 22 41 22h146q22 0 28 -13t-6 -30zM631 1067q63 0 108 -25q26 -12 19 -43l-39 -215q-3 -18 -11.5 -21.5t-29.5 -0.5q-44 13 -107 4
q-74 -6 -125 -54.5t-51 -127.5v-549q0 -35 -35 -35h-219q-35 0 -35 35v983q0 35 35 35h219q35 0 35 -35v-64q0 -8 4.5 -10t10.5 4q81 119 221 119z" />
    <glyph glyph-name="Sacute" unicode="&#x15a;" horiz-adv-x="1212" 
d="M498 1573q-20 0 -27 11t2 30l100 186q13 25 41 25h207q22 0 28.5 -13t-5.5 -30l-131 -187q-16 -22 -43 -22h-172zM610 -16q-242 0 -387 116.5t-145 311.5v34q0 35 35 35h215q34 0 34 -26v-29q0 -81 75 -138t196 -57q109 0 161 46t52 114q0 30 -14 55t-31.5 42t-63.5 39
t-77 34.5t-105 39.5q-5 2 -8 3q-56 19 -93.5 33.5t-90 38.5t-87.5 47t-73.5 57.5t-61.5 71.5t-38 86.5t-15 105.5q0 187 138.5 296.5t361.5 109.5q238 0 388 -121.5t150 -318.5v-21q0 -35 -34 -35h-215q-35 0 -35 21v20q0 85 -70.5 146t-193.5 61q-98 0 -151.5 -40.5
t-53.5 -112.5q0 -75 65 -116.5t252 -107.5q157 -57 214 -86q185 -95 221 -251q10 -43 10 -89q0 -188 -142.5 -301.5t-382.5 -113.5z" />
    <glyph glyph-name="sacute" unicode="&#x15b;" horiz-adv-x="1030" 
d="M414 1190q-20 0 -27 11t2 30l100 186q13 25 41 25h207q22 0 28.5 -13t-5.5 -30l-131 -187q-16 -22 -43 -22h-172zM526 -14q-207 0 -329.5 85t-122.5 220v10q0 35 35 35h206q35 0 35 -12v-15q0 -45 49.5 -76.5t124.5 -31.5q70 0 113 27t43 69q0 29 -28.5 48.5t-66 29.5
t-102 27.5t-110.5 35.5q-48 16 -84 31.5t-77 41.5t-67 55.5t-43.5 73.5t-17.5 97q0 152 118.5 241t311.5 89q197 0 317.5 -92.5t120.5 -239.5q0 -24 -34 -24h-201q-35 0 -35 12v12q0 46 -45 76.5t-121 30.5q-68 0 -112 -24.5t-44 -67.5q0 -24 15 -41t46.5 -29.5t62.5 -20.5
t83 -21t88 -24q54 -16 95.5 -32t85 -42t71.5 -57t46 -76t18 -100q0 -152 -121.5 -236.5t-323.5 -84.5z" />
    <glyph glyph-name="Scedilla" unicode="&#x15e;" horiz-adv-x="1212" 
d="M1135 399q0 -163 -108.5 -271t-297.5 -136q-8 -2 -9 -6t5 -9q108 -108 80 -227q-15 -54 -53 -86t-85 -38.5t-90.5 -2.5t-82.5 17q-28 8 -25 41l10 81q6 34 43 25q78 -17 96 43q18 66 -92 152q-6 6 -14 6q-201 25 -317.5 137.5t-116.5 286.5v34q0 35 35 35h215
q34 0 34 -26v-29q0 -81 75 -138t196 -57q109 0 161 46t52 114q0 30 -14 55t-31.5 42t-63.5 39t-77 34.5t-105 39.5q-5 2 -8 3q-56 19 -93.5 33.5t-90 38.5t-87.5 47t-73.5 57.5t-61.5 71.5t-38 86.5t-15 105.5q0 187 138.5 296.5t361.5 109.5q238 0 388 -121.5t150 -318.5
v-21q0 -35 -34 -35h-215q-35 0 -35 21v20q0 85 -70.5 146t-193.5 61q-98 0 -151.5 -40.5t-53.5 -112.5q0 -75 65 -116.5t252 -107.5q157 -57 214 -86q185 -95 221 -251q10 -43 10 -89z" />
    <glyph glyph-name="scedilla" unicode="&#x15f;" horiz-adv-x="1030" 
d="M971 307q0 -127 -86.5 -208t-235.5 -105q-7 0 -8.5 -5t4.5 -9q108 -108 80 -228q-15 -54 -53 -86t-85 -38.5t-90.5 -2.5t-82.5 17q-28 8 -25 41l10 81q6 34 43 25q35 -8 61.5 2.5t35.5 40.5q18 66 -93 152q-6 6 -14 6q-167 20 -262.5 101t-95.5 200v10q0 35 35 35h206
q35 0 35 -12v-15q0 -45 49.5 -76.5t124.5 -31.5q70 0 113 27t43 69q0 29 -28.5 48.5t-66 29.5t-102 27.5t-110.5 35.5q-48 16 -84 31.5t-77 41.5t-67 55.5t-43.5 73.5t-17.5 97q0 152 118.5 241t311.5 89q197 0 317.5 -92.5t120.5 -239.5q0 -24 -34 -24h-201q-35 0 -35 12
v12q0 46 -45 76.5t-121 30.5q-68 0 -112 -24.5t-44 -67.5q0 -24 15 -41t46.5 -29.5t62.5 -20.5t83 -21t88 -24q54 -16 95.5 -32t85 -42t71.5 -57t46 -76t18 -100z" />
    <glyph glyph-name="Scaron" unicode="&#x160;" horiz-adv-x="1212" 
d="M473 1554q-25 0 -41 23l-129 197q-11 17 -4.5 30t27.5 13h147q25 0 41 -23l76 -117q3 -6 8 -6t8 6l76 117q16 23 41 23h145q22 0 28.5 -13t-5.5 -30l-133 -197q-16 -23 -41 -23h-244zM610 -16q-242 0 -387 116.5t-145 311.5v34q0 35 35 35h215q34 0 34 -26v-29
q0 -81 75 -138t196 -57q109 0 161 46t52 114q0 30 -14 55t-31.5 42t-63.5 39t-77 34.5t-105 39.5q-5 2 -8 3q-56 19 -93.5 33.5t-90 38.5t-87.5 47t-73.5 57.5t-61.5 71.5t-38 86.5t-15 105.5q0 187 138.5 296.5t361.5 109.5q238 0 388 -121.5t150 -318.5v-21q0 -35 -34 -35
h-215q-35 0 -35 21v20q0 85 -70.5 146t-193.5 61q-98 0 -151.5 -40.5t-53.5 -112.5q0 -75 65 -116.5t252 -107.5q157 -57 214 -86q185 -95 221 -251q10 -43 10 -89q0 -188 -142.5 -301.5t-382.5 -113.5z" />
    <glyph glyph-name="scaron" unicode="&#x161;" horiz-adv-x="1030" 
d="M389 1171q-25 0 -41 23l-129 197q-11 17 -4.5 30t27.5 13h147q25 0 41 -23l76 -117q3 -6 8 -6t8 6l76 117q16 23 41 23h145q22 0 28.5 -13t-5.5 -30l-133 -197q-16 -23 -41 -23h-244zM526 -14q-207 0 -329.5 85t-122.5 220v10q0 35 35 35h206q35 0 35 -12v-15
q0 -45 49.5 -76.5t124.5 -31.5q70 0 113 27t43 69q0 29 -28.5 48.5t-66 29.5t-102 27.5t-110.5 35.5q-48 16 -84 31.5t-77 41.5t-67 55.5t-43.5 73.5t-17.5 97q0 152 118.5 241t311.5 89q197 0 317.5 -92.5t120.5 -239.5q0 -24 -34 -24h-201q-35 0 -35 12v12q0 46 -45 76.5
t-121 30.5q-68 0 -112 -24.5t-44 -67.5q0 -24 15 -41t46.5 -29.5t62.5 -20.5t83 -21t88 -24q54 -16 95.5 -32t85 -42t71.5 -57t46 -76t18 -100q0 -152 -121.5 -236.5t-323.5 -84.5z" />
    <glyph glyph-name="uni0162" unicode="&#x162;" horiz-adv-x="1198" 
d="M750 1184q-13 0 -13 -13v-1136q0 -35 -16 -35q-14 0 0 -14q101 -104 72 -219q-15 -54 -53 -86t-85.5 -39t-91 -3t-82.5 17q-27 8 -24 41l10 82q6 33 43 24q78 -17 96 43q17 64 -86 148q-6 6 -14 6h-23q-34 0 -34 35v1136q0 13 -13 13h-344q-35 0 -35 35v180q0 35 35 35
h1012q35 0 35 -35v-180q0 -35 -35 -35h-354z" />
    <glyph glyph-name="uni0163" unicode="&#x163;" horiz-adv-x="778" 
d="M479 1065q0 -12 13 -12h184q35 0 35 -35v-162q0 -35 -35 -35h-184q-13 0 -13 -12v-424q0 -67 28 -99t89 -32h57q35 0 35 -35v-176q0 -34 -35 -37q-78 -4 -112 -4q-84 0 -142 11.5t-104.5 40.5t-69.5 83t-24 135v537q0 12 -13 12h-104q-35 0 -35 35v162q0 35 35 35h104
q13 0 13 12v231q0 35 35 35h208q35 0 35 -35v-231zM553 -109q26 0 43 -14q139 -116 106 -250q-15 -54 -53 -86t-85 -38.5t-90.5 -2.5t-82.5 17q-27 8 -24 41l10 82q6 33 43 24q78 -17 96 43q14 61 -80 143q-19 15 -15 28t28 13h104z" />
    <glyph glyph-name="Tcaron" unicode="&#x164;" horiz-adv-x="1198" 
d="M756 1556q-16 -22 -41 -22h-244q-25 0 -41 22l-129 195q-11 17 -4.5 30t27.5 13h147q25 0 41 -22l76 -117q3 -6 8 -6t8 6l76 117q16 22 41 22h145q22 0 28.5 -13t-5.5 -30zM1104 1434q35 0 35 -35v-180q0 -35 -35 -35h-354q-13 0 -13 -13v-1136q0 -35 -35 -35h-219
q-34 0 -34 35v1136q0 13 -13 13h-344q-35 0 -35 35v180q0 35 35 35h1012z" />
    <glyph glyph-name="tcaron" unicode="&#x165;" horiz-adv-x="778" 
d="M508 1454q-16 -22 -41 -22h-244q-25 0 -41 22l-129 195q-11 17 -4.5 30t27.5 13h147q25 0 41 -23l76 -117q3 -6 8 -6t8 6l76 117q16 23 41 23h145q22 0 28.5 -13t-5.5 -30zM711 856q0 -35 -35 -35h-184q-13 0 -13 -12v-424q0 -67 28 -99t89 -32h57q35 0 35 -35v-176
q0 -34 -35 -37q-78 -4 -112 -4q-84 0 -142 11.5t-104.5 40.5t-69.5 83t-24 135v537q0 12 -13 12h-104q-35 0 -35 35v162q0 35 35 35h104q13 0 13 12v231q0 35 35 35h208q35 0 35 -35v-231q0 -12 13 -12h184q35 0 35 -35v-162z" />
    <glyph glyph-name="Tbar" unicode="&#x166;" horiz-adv-x="1228" 
d="M1139 1219q0 -35 -35 -35h-354q-13 0 -13 -13v-319q0 -12 13 -12h182q35 0 35 -35v-105q0 -34 -35 -34h-182q-13 0 -13 -13v-618q0 -35 -35 -35h-219q-34 0 -34 35v618q0 13 -13 13h-160q-34 0 -34 34v105q0 35 34 35h160q13 0 13 12v319q0 13 -13 13h-344q-35 0 -35 35
v180q0 35 35 35h1012q35 0 35 -35v-180z" />
    <glyph glyph-name="tbar" unicode="&#x167;" horiz-adv-x="1228" 
d="M711 856q0 -35 -35 -35h-184q-13 0 -13 -12v-84q0 -12 13 -12h178q35 0 35 -35v-105q0 -34 -35 -34h-178q-13 0 -13 -13v-141q0 -67 28 -99t89 -32h57q35 0 35 -35v-176q0 -34 -35 -37q-78 -4 -112 -4q-84 0 -142 11.5t-104.5 40.5t-69.5 83t-24 135v254q0 13 -13 13
h-100q-35 0 -35 34v105q0 35 35 35h100q13 0 13 12v84q0 12 -13 12h-104q-35 0 -35 35v162q0 35 35 35h104q13 0 13 12v231q0 35 35 35h208q35 0 35 -35v-231q0 -12 13 -12h184q35 0 35 -35v-162z" />
    <glyph glyph-name="Umacron" unicode="&#x16a;" horiz-adv-x="1288" 
d="M379 1591q-35 0 -35 35v125q0 35 35 35h532q35 0 35 -35v-125q0 -35 -35 -35h-532zM645 -16q-238 0 -384 135t-146 356v924q0 35 35 35h219q34 0 34 -35v-926q0 -108 67 -175t175 -67t175 67t67 175v926q0 35 35 35h219q35 0 35 -35v-924q0 -221 -146.5 -356t-384.5 -135
z" />
    <glyph glyph-name="umacron" unicode="&#x16b;" horiz-adv-x="1116" 
d="M819 1378q35 0 35 -35v-124q0 -35 -35 -35h-532q-35 0 -35 35v124q0 35 35 35h532zM721 1018q0 35 35 35h219q35 0 35 -35v-983q0 -35 -35 -35h-219q-35 0 -35 35v55q0 7 -4.5 8.5t-9.5 -4.5q-79 -108 -252 -108q-156 0 -256.5 93.5t-100.5 264.5v674q0 35 35 35h217
q35 0 35 -35v-602q0 -83 44.5 -134t121.5 -51q70 0 115.5 42t54.5 110v635z" />
    <glyph glyph-name="Uring" unicode="&#x16e;" horiz-adv-x="1288" 
d="M645 1554q-97 0 -163 66t-66 162q0 95 66 161t163 66q95 0 162 -66t67 -161t-67 -161.5t-162 -66.5zM645 1686q40 0 68 28t28 68q0 42 -28 70t-68 28q-42 0 -70 -28t-28 -70q0 -40 28.5 -68t69.5 -28zM645 -16q-238 0 -384 135t-146 356v924q0 35 35 35h219q34 0 34 -35
v-926q0 -108 67 -175t175 -67t175 67t67 175v926q0 35 35 35h219q35 0 35 -35v-924q0 -221 -146.5 -356t-384.5 -135z" />
    <glyph glyph-name="uring" unicode="&#x16f;" horiz-adv-x="1116" 
d="M553 1147q-97 0 -163 66t-66 161q0 96 66 162t163 66q95 0 162 -66.5t67 -161.5t-67 -161t-162 -66zM553 1473q-41 0 -69.5 -28.5t-28.5 -70.5q0 -40 28.5 -68t69.5 -28q40 0 68 28t28 68q0 42 -28 70.5t-68 28.5zM721 1018q0 35 35 35h219q35 0 35 -35v-983
q0 -35 -35 -35h-219q-35 0 -35 35v55q0 7 -4.5 8.5t-9.5 -4.5q-79 -108 -252 -108q-156 0 -256.5 93.5t-100.5 264.5v674q0 35 35 35h217q35 0 35 -35v-602q0 -83 44.5 -134t121.5 -51q70 0 115.5 42t54.5 110v635z" />
    <glyph glyph-name="Uhungarumlaut" unicode="&#x170;" horiz-adv-x="1288" 
d="M387 1579q-20 0 -27.5 11t0.5 30l86 184q14 27 41 27h189q20 0 26.5 -12t-2.5 -29l-98 -186q-12 -25 -41 -25h-174zM754 1579q-20 0 -27 12t2 29l98 186q13 25 41 25h174q20 0 27 -11t-2 -30l-100 -186q-13 -25 -41 -25h-172zM645 -16q-238 0 -384 135t-146 356v924
q0 35 35 35h219q34 0 34 -35v-926q0 -108 67 -175t175 -67t175 67t67 175v926q0 35 35 35h219q35 0 35 -35v-924q0 -221 -146.5 -356t-384.5 -135z" />
    <glyph glyph-name="uhungarumlaut" unicode="&#x171;" horiz-adv-x="1116" 
d="M584 1423q20 0 26.5 -12t-2.5 -29l-98 -186q-12 -25 -41 -25h-174q-20 0 -27.5 11t0.5 30l86 185q13 26 41 26h189zM874 1196q-12 -25 -40 -25h-172q-20 0 -27 12t2 29l98 187q12 24 41 24h174q20 0 27 -11t-2 -30zM721 1018q0 35 35 35h219q35 0 35 -35v-983
q0 -35 -35 -35h-219q-35 0 -35 35v55q0 7 -4.5 8.5t-9.5 -4.5q-79 -108 -252 -108q-156 0 -256.5 93.5t-100.5 264.5v674q0 35 35 35h217q35 0 35 -35v-602q0 -83 44.5 -134t121.5 -51q70 0 115.5 42t54.5 110v635z" />
    <glyph glyph-name="Uogonek" unicode="&#x172;" horiz-adv-x="1288" 
d="M887 1399q0 35 35 35h219q35 0 35 -35v-924q0 -201 -123 -332.5t-328 -154.5q-8 0 -14 -6q-88 -79 -74 -138q18 -60 96 -43q37 9 43 -24l10 -82q3 -33 -24 -41q-39 -13 -82.5 -17t-90.5 2.5t-85 38.5t-53 86q-26 118 69 216q5 4 3.5 9t-7.5 5q-185 35 -293 164t-108 317
v924q0 35 35 35h219q34 0 34 -35v-926q0 -108 67 -175t175 -67t175 67t67 175v926z" />
    <glyph glyph-name="uogonek" unicode="&#x173;" 
d="M975 -227q37 9 43 -25l10 -82q3 -33 -24 -41q-39 -13 -82.5 -17t-91 3t-85.5 39t-53 86q-33 134 107 250q6 4 4 9t-10 5h-37q-35 0 -35 35v55q0 7 -4.5 8.5t-9.5 -4.5q-79 -108 -252 -108q-156 0 -256.5 93.5t-100.5 264.5v674q0 35 35 35h217q35 0 35 -35v-602
q0 -83 44.5 -134t121.5 -51q70 0 115.5 42t54.5 110v635q0 35 35 35h219q35 0 35 -35v-1010q0 -8 -6 -14q-2 -2 -19.5 -14.5t-26.5 -20.5q-93 -81 -79 -143q18 -60 96 -43z" />
    <glyph glyph-name="Wcircumflex" unicode="&#x174;" horiz-adv-x="1767" 
d="M606 1550q-22 0 -28 13t6 30l143 199q14 20 43 20h221q29 0 43 -20l148 -199q12 -17 5.5 -30t-28.5 -13h-151q-25 0 -41 23l-76 117q-3 6 -8.5 6t-8.5 -6l-75 -117q-16 -23 -41 -23h-152zM438 0q-32 0 -39 31l-360 1364q-5 17 3.5 28t27.5 11h233q31 0 37 -31l192 -817
q2 -8 9 -8t8 8l184 817q6 31 37 31h231q33 0 39 -31l201 -817q1 -6 4 -7.5t6 0.5t4 7l185 817q6 31 37 31h223q18 0 26 -10.5t3 -28.5l-330 -1364q-6 -31 -39 -31h-225q-33 0 -39 31l-205 870q-2 8 -8.5 8.5t-8.5 -8.5l-190 -870q-6 -31 -37 -31h-209z" />
    <glyph glyph-name="wcircumflex" unicode="&#x175;" horiz-adv-x="1603" 
d="M506 1169q-22 0 -28.5 13t5.5 30l144 199q15 21 43 21h221q28 0 43 -21l147 -199q12 -17 6 -30t-28 -13h-152q-25 0 -41 23l-75 117q-3 6 -8.5 6t-8.5 -6l-76 -117q-16 -23 -41 -23h-151zM379 0q-29 0 -39 29l-289 985q-9 39 29 39h225q33 0 39 -31l141 -606
q2 -8 8.5 -8.5t8.5 8.5l151 606q6 31 39 31h201q32 0 39 -31l155 -608q1 -9 8 -9t9 9l156 608q7 31 38 31l226 -2q38 0 28 -39l-292 -983q-10 -29 -39 -29h-230q-29 0 -39 29l-153 536q-2 5 -5.5 7t-7 0.5t-4.5 -7.5l-135 -534q-7 -31 -39 -31h-229z" />
    <glyph glyph-name="Ycircumflex" unicode="&#x176;" horiz-adv-x="1263" 
d="M354 1550q-22 0 -28 13t6 30l143 199q14 20 43 20h221q29 0 43 -20l148 -199q12 -17 5.5 -30t-28.5 -13h-151q-25 0 -41 23l-76 117q-3 6 -8 6t-8 -6l-76 -117q-16 -23 -41 -23h-152zM522 2q-35 0 -35 35v506q0 8 -4 16l-413 834q-9 17 -2.5 29t26.5 12h238q28 0 41 -27
l250 -533q3 -6 8 -6t8 6l250 533q13 27 41 27h239q20 0 28 -12t-1 -29l-418 -834q-4 -8 -4 -16v-506q0 -35 -35 -35h-217z" />
    <glyph glyph-name="ycircumflex" unicode="&#x177;" horiz-adv-x="1034" 
d="M240 1190q-22 0 -28.5 13t5.5 30l143 199q14 20 43 20h222q29 0 43 -20l147 -199q12 -17 6 -30t-28 -13h-152q-25 0 -41 22l-76 117q-3 6 -8 6t-8 -6l-76 -117q-16 -22 -41 -22h-151zM100 -408q-14 0 -14 35v168q0 35 12 35h13q126 0 181 32t79 130q3 10 0 16l-330 1006
q-6 17 2 28t27 11h235q29 0 39 -29l168 -610q2 -8 8 -8t8 8l160 608q7 31 39 31h236q19 0 26.5 -11t1.5 -28l-350 -1053q-22 -64 -40.5 -107.5t-42.5 -85t-51.5 -68t-64 -49t-84 -34.5t-107 -18.5t-136.5 -6.5h-15z" />
    <glyph glyph-name="Ydieresis" unicode="&#x178;" horiz-adv-x="1263" 
d="M434 1550q-63 0 -104 40t-41 104t41 104.5t104 40.5q64 0 104 -40t40 -105q0 -64 -40 -104t-104 -40zM827 1550q-66 0 -105.5 39.5t-39.5 104.5t39.5 105t105.5 40q64 0 104 -40t40 -105q0 -64 -39.5 -104t-104.5 -40zM522 2q-35 0 -35 35v506q0 8 -4 16l-413 834
q-9 17 -2.5 29t26.5 12h238q28 0 41 -27l250 -533q3 -6 8 -6t8 6l250 533q13 27 41 27h239q20 0 28 -12t-1 -29l-418 -834q-4 -8 -4 -16v-506q0 -35 -35 -35h-217z" />
    <glyph glyph-name="Zacute" unicode="&#x179;" horiz-adv-x="1140" 
d="M467 1583q-20 0 -27 11t2 30l101 186q13 25 41 25h207q22 0 28 -13t-6 -30l-131 -186q-16 -23 -43 -23h-172zM100 0q-34 0 -34 35v203q0 26 14 43l655 890q4 6 2 10.5t-10 4.5h-627q-34 0 -34 35v178q0 35 34 35h928q35 0 35 -35v-203q0 -26 -14 -43l-656 -891
q-4 -6 -2 -10t10 -4h627q35 0 35 -35v-178q0 -35 -35 -35h-928z" />
    <glyph glyph-name="zacute" unicode="&#x17a;" horiz-adv-x="942" 
d="M365 1200q-20 0 -27 11t2 30l100 186q12 25 41 25h207q22 0 28.5 -13t-5.5 -30l-131 -186q-16 -23 -43 -23h-172zM84 0q-35 0 -35 35v203q0 23 17 43l454 497q11 15 -6 15h-418q-35 0 -35 34v191q0 35 35 35h746q35 0 35 -35v-201q0 -23 -17 -43l-469 -498q-11 -14 6 -14
h455q35 0 35 -35v-192q0 -35 -35 -35h-768z" />
    <glyph glyph-name="Zdotaccent" unicode="&#x17b;" horiz-adv-x="1140" 
d="M567 1565q-60 0 -96.5 36.5t-36.5 96.5t36.5 96.5t96.5 36.5q59 0 95 -36.5t36 -96.5t-36 -96.5t-95 -36.5zM100 0q-34 0 -34 35v203q0 26 14 43l655 890q4 6 2 10.5t-10 4.5h-627q-34 0 -34 35v178q0 35 34 35h928q35 0 35 -35v-203q0 -26 -14 -43l-656 -891
q-4 -6 -2 -10t10 -4h627q35 0 35 -35v-178q0 -35 -35 -35h-928z" />
    <glyph glyph-name="zdotaccent" unicode="&#x17c;" horiz-adv-x="942" 
d="M465 1182q-60 0 -96.5 36.5t-36.5 96.5t36.5 96.5t96.5 36.5q59 0 95 -36.5t36 -96.5t-36 -96.5t-95 -36.5zM84 0q-35 0 -35 35v203q0 23 17 43l454 497q11 15 -6 15h-418q-35 0 -35 34v191q0 35 35 35h746q35 0 35 -35v-201q0 -23 -17 -43l-469 -498q-11 -14 6 -14h455
q35 0 35 -35v-192q0 -35 -35 -35h-768z" />
    <glyph glyph-name="Zcaron" unicode="&#x17d;" horiz-adv-x="1140" 
d="M442 1565q-25 0 -41 22l-129 197q-11 17 -4.5 30t27.5 13h147q25 0 41 -23l76 -116q3 -6 8 -6t8 6l76 116q16 23 41 23h146q22 0 28 -13t-6 -30l-133 -197q-16 -22 -41 -22h-244zM100 0q-34 0 -34 35v203q0 26 14 43l655 890q4 6 2 10.5t-10 4.5h-627q-34 0 -34 35v178
q0 35 34 35h928q35 0 35 -35v-203q0 -26 -14 -43l-656 -891q-4 -6 -2 -10t10 -4h627q35 0 35 -35v-178q0 -35 -35 -35h-928z" />
    <glyph glyph-name="zcaron" unicode="&#x17e;" horiz-adv-x="942" 
d="M340 1182q-25 0 -41 22l-129 197q-11 17 -4.5 30t27.5 13h147q25 0 41 -23l76 -116q3 -6 8 -6t8 6l76 116q16 23 41 23h145q22 0 28.5 -13t-5.5 -30l-133 -197q-16 -22 -41 -22h-244zM84 0q-35 0 -35 35v203q0 23 17 43l454 497q11 15 -6 15h-418q-35 0 -35 34v191
q0 35 35 35h746q35 0 35 -35v-201q0 -23 -17 -43l-469 -498q-11 -14 6 -14h455q35 0 35 -35v-192q0 -35 -35 -35h-768z" />
    <glyph glyph-name="florin" unicode="&#x192;" horiz-adv-x="1134" 
d="M946 1219q-72 -1 -104 -34t-43 -108l-31 -188q-3 -12 12 -12h133q35 0 35 -35v-174q0 -35 -35 -35h-174q-11 0 -14 -10l-113 -709q-13 -84 -36 -139.5t-60 -95t-97 -59.5t-138 -27.5t-193 -4.5q-35 3 -35 37v146q0 34 35 34h88q65 0 102 32t50 110l108 674q3 12 -12 12
h-119q-35 0 -35 35v174q0 35 35 35h160q11 0 14 10l35 223q11 72 27.5 122.5t45.5 89t66 61t95 35.5t126 17t164 1q35 -3 35 -37v-146q0 -34 -35 -34h-92z" />
    <glyph glyph-name="uni01CD" unicode="&#x1cd;" horiz-adv-x="1374" 
d="M844 1556q-16 -22 -41 -22h-244q-25 0 -41 22l-129 195q-11 17 -4.5 30t27.5 13h147q25 0 41 -22l76 -117q3 -6 8 -6t8 6l76 117q16 22 41 22h145q22 0 28.5 -13t-5.5 -30zM1047 0q-29 0 -39 29l-58 190q-2 10 -12 10h-502q-10 0 -12 -10l-57 -190q-10 -29 -39 -29h-238
q-19 0 -27 11t-2 28l437 1366q10 29 39 29h301q29 0 39 -29l436 -1366q6 -17 -2 -28t-27 -11h-237zM496 467q-3 -14 10 -14h362q14 0 11 14l-185 625q-3 8 -8 8t-8 -8z" />
    <glyph glyph-name="uni01CE" unicode="&#x1ce;" horiz-adv-x="1081" 
d="M408 1169q-25 0 -41 23l-129 194q-11 17 -5 30.5t27 13.5h148q25 0 41 -23l75 -117q3 -6 8.5 -6t8.5 6l75 117q16 23 41 23h146q21 0 27.5 -13.5t-5.5 -30.5l-133 -194q-16 -23 -41 -23h-243zM528 1069q201 0 330 -100t129 -250v-684q0 -35 -35 -35h-219q-35 0 -35 35v49
q0 8 -4 9t-10 -5q-94 -104 -281 -104q-158 0 -254 77.5t-96 229.5q0 157 110.5 244.5t315.5 87.5h207q12 0 12 12v43q0 67 -41.5 105t-121.5 38q-127 0 -156 -78q-12 -29 -41 -26l-227 28q-16 2 -25 9.5t-8 19.5q15 129 140.5 212t309.5 83zM487 199q88 0 149.5 47t61.5 121
v71q0 13 -12 13h-145q-93 0 -146 -35t-53 -99q0 -55 40 -86.5t105 -31.5z" />
    <glyph glyph-name="uni0218" unicode="&#x218;" horiz-adv-x="1212" 
d="M610 -16q-242 0 -387 116.5t-145 311.5v34q0 35 35 35h215q34 0 34 -26v-29q0 -81 75 -138t196 -57q109 0 161 46t52 114q0 30 -14 55t-31.5 42t-63.5 39t-77 34.5t-105 39.5q-5 2 -8 3q-56 19 -93.5 33.5t-90 38.5t-87.5 47t-73.5 57.5t-61.5 71.5t-38 86.5t-15 105.5
q0 187 138.5 296.5t361.5 109.5q238 0 388 -121.5t150 -318.5v-21q0 -35 -34 -35h-215q-35 0 -35 21v20q0 85 -70.5 146t-193.5 61q-98 0 -151.5 -40.5t-53.5 -112.5q0 -75 65 -116.5t252 -107.5q157 -57 214 -86q185 -95 221 -251q10 -43 10 -89q0 -188 -142.5 -301.5
t-382.5 -113.5zM420 -377q-20 0 -27 11t2 30l101 186q12 25 41 25h206q22 0 28.5 -13t-5.5 -30l-131 -186q-16 -23 -43 -23h-172z" />
    <glyph glyph-name="uni0219" unicode="&#x219;" horiz-adv-x="1030" 
d="M526 -14q-207 0 -329.5 85t-122.5 220v10q0 35 35 35h206q35 0 35 -12v-15q0 -45 49.5 -76.5t124.5 -31.5q70 0 113 27t43 69q0 29 -28.5 48.5t-66 29.5t-102 27.5t-110.5 35.5q-48 16 -84 31.5t-77 41.5t-67 55.5t-43.5 73.5t-17.5 97q0 152 118.5 241t311.5 89
q197 0 317.5 -92.5t120.5 -239.5q0 -24 -34 -24h-201q-35 0 -35 12v12q0 46 -45 76.5t-121 30.5q-68 0 -112 -24.5t-44 -67.5q0 -24 15 -41t46.5 -29.5t62.5 -20.5t83 -21t88 -24q54 -16 95.5 -32t85 -42t71.5 -57t46 -76t18 -100q0 -152 -121.5 -236.5t-323.5 -84.5z
M340 -375q-20 0 -27 11t2 30l101 187q12 24 41 24h207q22 0 28 -13t-6 -30l-131 -186q-16 -23 -43 -23h-172z" />
    <glyph glyph-name="uni021A" unicode="&#x21a;" horiz-adv-x="1226" 
d="M57 1399q0 35 35 35h1012q35 0 35 -35v-180q0 -35 -35 -35h-354q-13 0 -13 -13v-1136q0 -35 -35 -35h-219q-34 0 -34 35v1136q0 13 -13 13h-344q-35 0 -35 35v180zM371 -360q-20 0 -27 11t2 30l100 186q12 24 41 24h207q22 0 28.5 -13t-5.5 -30l-131 -186
q-16 -22 -43 -22h-172z" />
    <glyph glyph-name="uni021B" unicode="&#x21b;" horiz-adv-x="778" 
d="M479 1065q0 -12 13 -12h184q35 0 35 -35v-162q0 -35 -35 -35h-184q-13 0 -13 -12v-424q0 -67 28 -99t89 -32h57q35 0 35 -35v-176q0 -34 -35 -37q-78 -4 -112 -4q-84 0 -142 11.5t-104.5 40.5t-69.5 83t-24 135v537q0 12 -13 12h-104q-35 0 -35 35v162q0 35 35 35h104
q13 0 13 12v231q0 35 35 35h208q35 0 35 -35v-231zM317 -500q-20 0 -26.5 11t2.5 30l100 187q12 24 41 24h207q22 0 28.5 -13t-5.5 -30l-132 -186q-16 -23 -43 -23h-172z" />
    <glyph glyph-name="uni0228" unicode="&#x228;" horiz-adv-x="1196" 
d="M1120 1221q0 -35 -35 -35h-659q-12 0 -12 -12v-314q0 -12 12 -12h428q35 0 35 -35v-178q0 -35 -35 -35h-428q-12 0 -12 -12v-328q0 -12 12 -12h659q35 0 35 -35v-178q0 -35 -35 -35h-323q-8 0 -9 -4t5 -10q100 -103 71 -219q-15 -54 -53 -86t-85 -39t-90.5 -3t-82.5 17
q-27 8 -24 41l10 82q6 33 43 24q78 -17 96 43q17 64 -86 148q-6 6 -14 6h-383q-35 0 -35 35v1364q0 35 35 35h925q35 0 35 -35v-178z" />
    <glyph glyph-name="uni0229" unicode="&#x229;" 
d="M614 227q134 6 207 95q25 28 49 4l117 -113q22 -22 4 -49q-105 -132 -289 -168q-8 -2 -9 -7t5 -9q115 -109 86 -234q-15 -54 -53 -86t-85 -39t-90.5 -3t-82.5 17q-27 8 -24 41l10 82q6 34 43 25q78 -17 96 43q18 70 -102 162q-6 3 -15 6q-146 24 -241 115.5t-131 234.5
q-25 92 -25 191q0 119 22 200q42 152 165.5 244t293.5 92q201 0 318.5 -119.5t152.5 -333.5q10 -77 13 -149q0 -35 -35 -35h-629q-12 0 -12 -12q7 -44 14 -64q22 -63 81 -97t146 -34zM561 821q-132 0 -170 -121q-11 -37 -12 -51q-3 -12 10 -12h348q14 0 11 12q-3 24 -9 43
q-19 61 -64.5 95t-113.5 34z" />
    <glyph glyph-name="circumflex" unicode="&#x2c6;" horiz-adv-x="659" 
d="M53 1169q-22 0 -28 13t6 30l143 199q15 21 43 21h221q28 0 43 -21l148 -199q12 -17 5.5 -30t-28.5 -13h-151q-25 0 -41 23l-76 117q-3 6 -8 6t-8 -6l-76 -117q-16 -23 -41 -23h-152z" />
    <glyph glyph-name="caron" unicode="&#x2c7;" horiz-adv-x="722" 
d="M238 1159q-25 0 -41 23l-129 196q-11 17 -5 30t27 13h148q25 0 41 -22l75 -117q3 -6 8.5 -6t8.5 6l75 117q16 22 41 22h146q22 0 28 -13t-6 -30l-133 -196q-16 -23 -41 -23h-243z" />
    <glyph glyph-name="uni02C9" unicode="&#x2c9;" horiz-adv-x="602" 
d="M35 1184q-35 0 -35 35v124q0 35 35 35h532q35 0 35 -35v-124q0 -35 -35 -35h-532z" />
    <glyph glyph-name="breve" unicode="&#x2d8;" horiz-adv-x="591" 
d="M295 1124q-98 0 -169 58.5t-85 148.5q-3 37 35 37h82q28 0 37 -33q9 -36 37 -59t63 -23q36 0 64.5 23t37.5 59q9 33 37 33h82q38 0 35 -35q-14 -91 -86 -150t-170 -59z" />
    <glyph glyph-name="dotaccent" unicode="&#x2d9;" horiz-adv-x="339" 
d="M172 1157q-60 0 -96.5 36.5t-36.5 96.5t36.5 96.5t96.5 36.5q59 0 95 -36.5t36 -96.5t-36 -96.5t-95 -36.5z" />
    <glyph glyph-name="ring" unicode="&#x2da;" horiz-adv-x="534" 
d="M268 1147q-97 0 -163 66t-66 161q0 96 66.5 162t162.5 66q95 0 162.5 -66.5t67.5 -161.5t-67 -161t-163 -66zM268 1278q40 0 68.5 28t28.5 68q0 42 -28.5 70.5t-68.5 28.5q-42 0 -70 -28.5t-28 -70.5q0 -40 28.5 -68t69.5 -28z" />
    <glyph glyph-name="ogonek" unicode="&#x2db;" horiz-adv-x="346" 
d="M342 -334q3 -33 -25 -41q-39 -13 -82.5 -17t-90.5 3t-85 39t-53 86q-33 134 107 250q17 14 43 14h104q24 0 27.5 -13t-15.5 -28q-93 -81 -79 -143q18 -60 96 -43q37 9 43 -25z" />
    <glyph glyph-name="tilde" unicode="&#x2dc;" horiz-adv-x="722" 
d="M473 1176q-57 0 -135 51q-49 33 -80 33q-48 0 -76 -35q-23 -30 -47 -11l-72 50q-27 20 -12 47q28 67 78 101t109 34q56 0 133 -47q67 -37 98 -37q44 0 70 37q22 28 47 10l73 -49q29 -22 3 -64q-36 -60 -87 -90t-102 -30z" />
    <glyph glyph-name="hungarumlaut" unicode="&#x2dd;" horiz-adv-x="872" 
d="M86 1192q-20 0 -27 12t2 29l99 186q12 25 41 25h202q22 0 28.5 -13t-5.5 -30l-131 -187q-16 -22 -41 -22h-168zM465 1192q-20 0 -27 12t2 29l99 186q13 25 41 25h202q22 0 28.5 -13t-5.5 -30l-131 -187q-16 -22 -41 -22h-168z" />
    <glyph glyph-name="gravecomb" unicode="&#x300;" horiz-adv-x="0" 
d="M-25 1217q9 -19 2.5 -30t-26.5 -11h-172q-25 0 -41 22l-131 186q-12 17 -6.5 30t26.5 13h207q29 0 41 -24z" />
    <glyph glyph-name="acutecomb" unicode="&#x301;" horiz-adv-x="0" 
d="M-418 1176q-20 0 -26.5 11t2.5 30l100 186q12 24 41 24h207q22 0 28 -13t-6 -30l-131 -186q-16 -22 -43 -22h-172z" />
    <glyph glyph-name="uni0302" unicode="&#x302;" horiz-adv-x="0" 
d="M-606 1169q-22 0 -28.5 13t5.5 30l144 199q15 21 43 21h221q28 0 43 -21l147 -199q12 -17 6 -30t-28 -13h-152q-25 0 -41 23l-76 117q-3 6 -8 6t-8 -6l-76 -117q-16 -23 -41 -23h-151z" />
    <glyph glyph-name="tildecomb" unicode="&#x303;" horiz-adv-x="0" 
d="M-240 1176q-57 0 -135 51q-49 33 -80 33q-47 0 -75 -35q-23 -30 -48 -11l-71 50q-28 21 -13 47q28 67 78 101t109 34q56 0 133 -47q67 -37 98 -37q44 0 70 37q22 28 47 10l74 -49q28 -21 2 -64q-36 -60 -87 -90t-102 -30z" />
    <glyph glyph-name="uni0304" unicode="&#x304;" horiz-adv-x="0" 
d="M-567 1184q-35 0 -35 35v124q0 35 35 35h532q35 0 35 -35v-124q0 -35 -35 -35h-532z" />
    <glyph glyph-name="uni0306" unicode="&#x306;" horiz-adv-x="0" 
d="M-297 1112q-97 0 -168.5 59.5t-85.5 149.5q-3 37 35 37h82q28 0 37 -33q9 -37 37 -59.5t63 -22.5q37 0 65 22.5t37 59.5q9 33 37 33h82q38 0 35 -35q-14 -91 -86 -151t-170 -60z" />
    <glyph glyph-name="uni0307" unicode="&#x307;" horiz-adv-x="0" 
d="M-131 1157q-60 0 -96.5 36.5t-36.5 96.5t36.5 96.5t96.5 36.5q59 0 95 -36.5t36 -96.5t-36 -96.5t-95 -36.5z" />
    <glyph glyph-name="uni0308" unicode="&#x308;" horiz-adv-x="0" 
d="M-537 1169q-63 0 -104 40t-41 104t41 104.5t104 40.5q64 0 104 -40t40 -105t-39.5 -104.5t-104.5 -39.5zM-143 1169q-66 0 -106 39.5t-40 104.5t40 105t106 40q64 0 103.5 -40t39.5 -105t-39.5 -104.5t-103.5 -39.5z" />
    <glyph glyph-name="uni030A" unicode="&#x30a;" horiz-adv-x="0" 
d="M-219 1147q-97 0 -163.5 66t-66.5 161t66.5 161.5t163.5 66.5q95 0 162 -66.5t67 -161.5t-67 -161t-162 -66zM-219 1278q40 0 68 28t28 68q0 42 -28 70.5t-68 28.5q-41 0 -69.5 -28.5t-28.5 -70.5q0 -40 28.5 -68t69.5 -28z" />
    <glyph glyph-name="uni030B" unicode="&#x30b;" horiz-adv-x="0" 
d="M-741 1171q-20 0 -27.5 11t0.5 30l86 185q13 26 41 26h188q20 0 27 -12t-2 -29l-98 -186q-12 -25 -41 -25h-174zM-375 1171q-20 0 -26.5 12t2.5 29l98 187q12 24 41 24h174q20 0 27 -11t-2 -30l-101 -186q-12 -25 -41 -25h-172z" />
    <glyph glyph-name="uni030C" unicode="&#x30c;" horiz-adv-x="0" 
d="M-485 1155q-25 0 -41 23l-129 194q-11 17 -5 30t27 13h148q25 0 41 -22l75 -117q3 -6 8.5 -6t8.5 6l76 117q16 22 40 22h146q22 0 28 -13t-6 -30l-133 -194q-16 -23 -41 -23h-243z" />
    <glyph glyph-name="uni0312" unicode="&#x312;" horiz-adv-x="0" 
d="M-86 1417q20 0 27 -11t-2 -30l-101 -186q-12 -25 -41 -25h-207q-22 0 -28 13t6 30l131 187q16 22 43 22h172z" />
    <glyph glyph-name="uni0313" unicode="&#x313;" horiz-adv-x="0" 
d="M-377 1176q-20 0 -26.5 11t2.5 30l100 186q12 24 41 24h207q22 0 28 -13t-6 -30l-131 -186q-16 -22 -43 -22h-172z" />
    <glyph glyph-name="uni0326" unicode="&#x326;" horiz-adv-x="0" 
d="M-414 -360q-20 0 -26.5 11t2.5 30l100 186q12 24 41 24h207q22 0 28 -13t-6 -30l-131 -186q-16 -22 -43 -22h-172z" />
    <glyph glyph-name="uni0327" unicode="&#x327;" horiz-adv-x="0" 
d="M-317 -375q-28 8 -25 41l10 82q6 34 43 25q78 -17 96 43q14 62 -79 143q-19 15 -15.5 28t27.5 13h104q26 0 43 -14q140 -116 107 -250q-15 -54 -53 -86t-85 -39t-90.5 -3t-82.5 17z" />
    <glyph glyph-name="uni0328" unicode="&#x328;" horiz-adv-x="0" 
d="M-4 -334q3 -33 -25 -41q-39 -13 -82.5 -17t-90.5 3t-85 39t-53 86q-33 134 107 250q17 14 43 14h104q24 0 27.5 -13t-15.5 -28q-94 -82 -80 -143q9 -30 35.5 -40.5t61.5 -2.5q37 9 43 -25z" />
    <glyph glyph-name="uni0335" unicode="&#x335;" horiz-adv-x="0" 
d="M-725 1282q0 35 35 35h655q35 0 35 -35v-104q0 -35 -35 -35h-655q-35 0 -35 35v104z" />
    <glyph glyph-name="uni0336" unicode="&#x336;" horiz-adv-x="0" 
d="M-1253 1042q-35 0 -35 35v127q0 35 35 35h1218q35 0 35 -35v-127q0 -35 -35 -35h-1218z" />
    <glyph glyph-name="uni0337" unicode="&#x337;" horiz-adv-x="0" 
d="M-848 -59q-27 -24 -49 4l-96 112q-21 27 4 49l966 807q28 24 50 -4l98 -114q22 -28 -4 -50z" />
    <glyph glyph-name="uni0338" unicode="&#x338;" horiz-adv-x="0" 
d="M-926 -76q-20 0 -27.5 12t1.5 29l770 1526q12 25 41 25h94q20 0 28 -12t-1 -29l-771 -1526q-13 -25 -40 -25h-95z" />
    <glyph glyph-name="uni0394" unicode="&#x394;" horiz-adv-x="1353" 
d="M84 0q-35 0 -35 35v190q0 22 8 43l502 1139q13 27 41 27h152q28 0 41 -27l503 -1141q9 -24 9 -43v-188q0 -35 -35 -35h-1186zM336 264q-6 -14 10 -14h662q16 0 10 14l-334 783q-3 7 -8 7t-8 -7z" />
    <glyph glyph-name="uni03A9" unicode="&#x3a9;" horiz-adv-x="1300" 
d="M131 0q-35 0 -35 35v178q0 35 35 35h76q8 0 10 4t-4 10q-102 117 -102 299v375q0 231 147.5 372.5t390.5 141.5q244 0 392.5 -141.5t148.5 -372.5v-375q0 -180 -103 -299q-6 -6 -3.5 -10t10.5 -4h75q35 0 35 -35v-178q0 -35 -35 -35h-428q-34 0 -34 35v188q0 28 30 37
q72 23 118 90.5t46 161.5v430q0 119 -69 190.5t-183 71.5q-113 0 -181.5 -72t-68.5 -190v-430q0 -94 46.5 -162t117.5 -92q31 -9 31 -37v-186q0 -35 -35 -35h-428z" />
    <glyph glyph-name="uni03BC" unicode="&#x3bc;" horiz-adv-x="1128" 
d="M731 1018q0 35 35 35h219q35 0 35 -35v-983q0 -35 -35 -35h-219q-35 0 -35 35v55q0 7 -4.5 8.5t-9.5 -4.5q-79 -108 -252 -108q-21 0 -57 4q-6 1 -9.5 -3t-3.5 -10v-352q0 -35 -35 -35h-219q-35 0 -35 35v1393q0 35 35 35h219q35 0 35 -35v-602q0 -83 44.5 -134
t121.5 -51q70 0 115.5 42t54.5 110v635z" />
    <glyph glyph-name="pi" unicode="&#x3c0;" horiz-adv-x="1355" 
d="M1296 842q0 -35 -34 -35h-109q-12 0 -12 -12v-396q0 -96 24 -124.5t76 -28.5q35 0 35 -35v-176q0 -35 -35 -35q-40 -4 -84.5 -2t-88 4.5t-83.5 19t-69.5 41t-47 71.5t-16.5 110v551q0 12 -12 12h-318q-12 0 -12 -12v-760q0 -35 -35 -35h-219q-35 0 -35 35v760
q0 12 -12 12h-115q-35 0 -35 35v176q0 35 35 35h1168q34 0 34 -35v-176z" />
    <glyph glyph-name="Wgrave" unicode="&#x1e80;" horiz-adv-x="1767" 
d="M989 1597q9 -19 2.5 -30t-26.5 -11h-172q-25 0 -41 23l-131 186q-12 17 -6.5 30t26.5 13h207q29 0 41 -24zM438 0q-32 0 -39 31l-360 1364q-5 17 3.5 28t27.5 11h233q31 0 37 -31l192 -817q2 -8 9 -8t8 8l184 817q6 31 37 31h231q33 0 39 -31l201 -817q1 -6 4 -7.5t6 0.5
t4 7l185 817q6 31 37 31h223q18 0 26 -10.5t3 -28.5l-330 -1364q-6 -31 -39 -31h-225q-33 0 -39 31l-205 870q-2 8 -8.5 8.5t-8.5 -8.5l-190 -870q-6 -31 -37 -31h-209z" />
    <glyph glyph-name="wgrave" unicode="&#x1e81;" horiz-adv-x="1603" 
d="M889 1217q9 -19 2 -30t-27 -11h-172q-25 0 -41 22l-131 186q-12 17 -6 30t27 13h207q28 0 40 -24zM379 0q-29 0 -39 29l-289 985q-9 39 29 39h225q33 0 39 -31l141 -606q2 -8 8.5 -8.5t8.5 8.5l151 606q6 31 39 31h201q32 0 39 -31l155 -608q1 -9 8 -9t9 9l156 608
q7 31 38 31l226 -2q38 0 28 -39l-292 -983q-10 -29 -39 -29h-230q-29 0 -39 29l-153 536q-2 5 -5.5 7t-7 0.5t-4.5 -7.5l-135 -534q-7 -31 -39 -31h-229z" />
    <glyph glyph-name="Wacute" unicode="&#x1e82;" horiz-adv-x="1767" 
d="M782 1556q-20 0 -26.5 11t2.5 30l100 187q12 24 41 24h207q22 0 28 -13t-6 -30l-131 -186q-16 -23 -43 -23h-172zM438 0q-32 0 -39 31l-360 1364q-5 17 3.5 28t27.5 11h233q31 0 37 -31l192 -817q2 -8 9 -8t8 8l184 817q6 31 37 31h231q33 0 39 -31l201 -817q1 -6 4 -7.5
t6 0.5t4 7l185 817q6 31 37 31h223q18 0 26 -10.5t3 -28.5l-330 -1364q-6 -31 -39 -31h-225q-33 0 -39 31l-205 870q-2 8 -8.5 8.5t-8.5 -8.5l-190 -870q-6 -31 -37 -31h-209z" />
    <glyph glyph-name="wacute" unicode="&#x1e83;" horiz-adv-x="1603" 
d="M682 1176q-20 0 -27 11t2 30l101 186q12 24 41 24h207q22 0 28 -13t-6 -30l-131 -186q-16 -22 -43 -22h-172zM379 0q-29 0 -39 29l-289 985q-9 39 29 39h225q33 0 39 -31l141 -606q2 -8 8.5 -8.5t8.5 8.5l151 606q6 31 39 31h201q32 0 39 -31l155 -608q1 -9 8 -9t9 9
l156 608q7 31 38 31l226 -2q38 0 28 -39l-292 -983q-10 -29 -39 -29h-230q-29 0 -39 29l-153 536q-2 5 -5.5 7t-7 0.5t-4.5 -7.5l-135 -534q-7 -31 -39 -31h-229z" />
    <glyph glyph-name="Wdieresis" unicode="&#x1e84;" horiz-adv-x="1767" 
d="M686 1550q-63 0 -104 40t-41 104t41 104.5t104 40.5q64 0 103.5 -40t39.5 -105t-39.5 -104.5t-103.5 -39.5zM1079 1550q-66 0 -105.5 39.5t-39.5 104.5t39.5 105t105.5 40q64 0 104 -40t40 -105q0 -64 -39.5 -104t-104.5 -40zM438 0q-32 0 -39 31l-360 1364q-5 17 3.5 28
t27.5 11h233q31 0 37 -31l192 -817q2 -8 9 -8t8 8l184 817q6 31 37 31h231q33 0 39 -31l201 -817q1 -6 4 -7.5t6 0.5t4 7l185 817q6 31 37 31h223q18 0 26 -10.5t3 -28.5l-330 -1364q-6 -31 -39 -31h-225q-33 0 -39 31l-205 870q-2 8 -8.5 8.5t-8.5 -8.5l-190 -870
q-6 -31 -37 -31h-209z" />
    <glyph glyph-name="wdieresis" unicode="&#x1e85;" horiz-adv-x="1603" 
d="M586 1169q-64 0 -105 40t-41 104t41.5 104.5t104.5 40.5q64 0 103.5 -40t39.5 -105t-39.5 -104.5t-103.5 -39.5zM979 1169q-66 0 -105.5 39.5t-39.5 104.5t39.5 105t105.5 40q64 0 103.5 -40t39.5 -105t-39.5 -104.5t-103.5 -39.5zM379 0q-29 0 -39 29l-289 985
q-9 39 29 39h225q33 0 39 -31l141 -606q2 -8 8.5 -8.5t8.5 8.5l151 606q6 31 39 31h201q32 0 39 -31l155 -608q1 -9 8 -9t9 9l156 608q7 31 38 31l226 -2q38 0 28 -39l-292 -983q-10 -29 -39 -29h-230q-29 0 -39 29l-153 536q-2 5 -5.5 7t-7 0.5t-4.5 -7.5l-135 -534
q-7 -31 -39 -31h-229z" />
    <glyph glyph-name="Ygrave" unicode="&#x1ef2;" horiz-adv-x="1263" 
d="M737 1597q9 -19 2.5 -30t-26.5 -11h-172q-25 0 -41 23l-131 186q-12 17 -6.5 30t26.5 13h207q29 0 41 -24zM522 2q-35 0 -35 35v506q0 8 -4 16l-413 834q-9 17 -2.5 29t26.5 12h238q28 0 41 -27l250 -533q3 -6 8 -6t8 6l250 533q13 27 41 27h239q20 0 28 -12t-1 -29
l-418 -834q-4 -8 -4 -16v-506q0 -35 -35 -35h-217z" />
    <glyph glyph-name="ygrave" unicode="&#x1ef3;" horiz-adv-x="1034" 
d="M623 1237q9 -19 2 -30t-27 -11h-172q-25 0 -41 23l-131 186q-12 17 -6.5 30t26.5 13h207q29 0 41 -25zM100 -408q-14 0 -14 35v168q0 35 12 35h13q126 0 181 32t79 130q3 10 0 16l-330 1006q-6 17 2 28t27 11h235q29 0 39 -29l168 -610q2 -8 8 -8t8 8l160 608q7 31 39 31
h236q19 0 26.5 -11t1.5 -28l-350 -1053q-22 -64 -40.5 -107.5t-42.5 -85t-51.5 -68t-64 -49t-84 -34.5t-107 -18.5t-136.5 -6.5h-15z" />
    <glyph glyph-name="endash" unicode="&#x2013;" horiz-adv-x="974" 
d="M94 457q-35 0 -35 35v178q0 35 35 35h789q35 0 35 -35v-178q0 -35 -35 -35h-789z" />
    <glyph glyph-name="emdash" unicode="&#x2014;" horiz-adv-x="1349" 
d="M94 459q-35 0 -35 35v176q0 35 35 35h1161q35 0 35 -35v-176q0 -35 -35 -35h-1161z" />
    <glyph glyph-name="quoteleft" unicode="&#x2018;" horiz-adv-x="417" 
d="M43 971q-19 0 -26.5 12t-0.5 29l162 395q12 27 39 27h160q19 0 27.5 -11t3.5 -28l-107 -396q-9 -28 -39 -28h-219z" />
    <glyph glyph-name="quoteright" unicode="&#x2019;" horiz-adv-x="417" 
d="M375 1434q19 0 26.5 -12t-0.5 -29l-161 -396q-12 -26 -39 -26h-160q-19 0 -27.5 11t-3.5 28l107 395q10 29 39 29h219z" />
    <glyph glyph-name="quotesinglbase" unicode="&#x201a;" horiz-adv-x="1228" 
d="M117 -201q-37 0 -31 37l66 455q2 15 11.5 24t24.5 9h187q19 0 27.5 -11t3.5 -28l-123 -457q-10 -29 -39 -29h-127z" />
    <glyph glyph-name="quotedblleft" unicode="&#x201c;" horiz-adv-x="743" 
d="M43 971q-19 0 -27 11t-2 28l140 395q9 29 41 29h151q19 0 27.5 -11t3.5 -28l-90 -394q-6 -30 -37 -30h-207zM406 971q-19 0 -27 11t-2 28l137 395q9 29 41 29h150q37 0 30 -39l-86 -394q-6 -30 -37 -30h-206z" />
    <glyph glyph-name="quotedblright" unicode="&#x201d;" horiz-adv-x="743" 
d="M338 1434q19 0 27 -11t2 -28l-138 -396q-8 -28 -41 -28h-149q-38 0 -31 39l86 393q6 31 37 31h207zM700 1434q19 0 27 -11t2 -28l-139 -396q-8 -28 -41 -28h-152q-19 0 -27 11t-3 28l90 393q6 31 37 31h206z" />
    <glyph glyph-name="quotedblbase" unicode="&#x201e;" horiz-adv-x="784" 
d="M338 262q19 0 27 -11t2 -28l-138 -395q-9 -29 -41 -29h-149q-38 0 -31 39l86 393q6 31 37 31h207zM700 262q19 0 27 -11t2 -28l-139 -395q-9 -29 -41 -29h-152q-19 0 -27 11t-3 28l90 393q6 31 37 31h206z" />
    <glyph glyph-name="dagger" unicode="&#x2020;" horiz-adv-x="919" 
d="M825 940q35 0 35 -35v-147q0 -35 -35 -35h-209q-12 0 -12 -12v-1086q0 -35 -35 -35h-219q-35 0 -35 35v1086q0 12 -12 12h-209q-35 0 -35 35v147q0 35 35 35h209q12 0 12 12v447q0 35 35 35h219q35 0 35 -35v-447q0 -12 12 -12h209z" />
    <glyph glyph-name="daggerdbl" unicode="&#x2021;" horiz-adv-x="919" 
d="M860 758q0 -35 -35 -35h-209q-12 0 -12 -12v-398q0 -12 12 -12h209q35 0 35 -35v-147q0 -35 -35 -35h-209q-12 0 -12 -12v-447q0 -35 -35 -35h-219q-35 0 -35 35v447q0 12 -12 12h-209q-35 0 -35 35v147q0 35 35 35h209q12 0 12 12v398q0 12 -12 12h-209q-35 0 -35 35
v147q0 35 35 35h209q12 0 12 12v447q0 35 35 35h219q35 0 35 -35v-447q0 -12 12 -12h209q35 0 35 -35v-147z" />
    <glyph glyph-name="bullet" unicode="&#x2022;" horiz-adv-x="649" 
d="M326 299q-110 0 -188.5 79t-78.5 189t78 187t189 77q109 0 186.5 -77t77.5 -187t-77.5 -189t-186.5 -79z" />
    <glyph glyph-name="ellipsis" unicode="&#x2026;" horiz-adv-x="1738" 
d="M270 -8q-81 0 -133.5 51.5t-52.5 126.5q0 72 57 124t129 52q75 0 133 -52t58 -124q0 -74 -55 -126t-136 -52zM868 -8q-81 0 -133.5 51.5t-52.5 126.5q0 72 57 124t129 52q75 0 133 -52t58 -124q0 -74 -55 -126t-136 -52zM1462 -8q-81 0 -133.5 51.5t-52.5 126.5
q0 72 57 124t129 52q75 0 133 -52t58 -124q0 -74 -55 -126t-136 -52z" />
    <glyph glyph-name="perthousand" unicode="&#x2030;" horiz-adv-x="2402" 
d="M338 565q-137 0 -217 78t-80 211v311q0 131 80.5 208t216.5 77q137 0 218 -77.5t81 -207.5v-311q0 -133 -81 -211t-218 -78zM397 0q-20 0 -27 12t3 29l798 1368q16 25 41 25h134q20 0 27 -12t-3 -29l-799 -1368q-16 -25 -41 -25h-133zM338 725q52 0 82.5 31.5t30.5 85.5
v329q0 54 -30.5 86.5t-82.5 32.5q-51 0 -81 -32.5t-30 -86.5v-329q0 -54 30 -85.5t81 -31.5zM1393 -16q-137 0 -217 77.5t-80 210.5v312q0 131 80.5 207.5t216.5 76.5q137 0 218 -77t81 -207v-312q0 -133 -81 -210.5t-218 -77.5zM2066 -16q-137 0 -217 77.5t-80 210.5v312
q0 131 80.5 207.5t216.5 76.5q137 0 218 -77t81 -207v-312q0 -133 -81 -210.5t-218 -77.5zM1393 143q52 0 82 31.5t30 85.5v330q0 54 -30 86.5t-82 32.5q-51 0 -81 -32.5t-30 -86.5v-330q0 -54 30 -85.5t81 -31.5zM2066 143q52 0 82.5 31.5t30.5 85.5v330q0 54 -30.5 86.5
t-82.5 32.5q-51 0 -80.5 -32.5t-29.5 -86.5v-330q0 -54 29.5 -85.5t80.5 -31.5z" />
    <glyph glyph-name="guilsinglleft" unicode="&#x2039;" horiz-adv-x="686" 
d="M535 260q11 -17 4 -29t-27 -12h-182q-27 0 -41 23l-187 309q-15 25 0 49l187 309q14 23 41 23h182q20 0 27 -12t-4 -29l-187 -307q-6 -8 0 -17z" />
    <glyph glyph-name="guilsinglright" unicode="&#x203a;" horiz-adv-x="710" 
d="M174 219q-20 0 -26.5 12t4.5 29l186 307q6 9 0 17l-186 307q-11 17 -4.5 29t26.5 12h182q27 0 41 -23l187 -309q15 -24 0 -49l-187 -309q-14 -23 -41 -23h-182z" />
    <glyph glyph-name="fraction" unicode="&#x2044;" horiz-adv-x="452" 
d="M-227 0q-20 0 -27.5 12t2.5 29l799 1368q16 25 41 25h133q20 0 27 -12t-3 -29l-798 -1368q-16 -25 -41 -25h-133z" />
    <glyph glyph-name="uni2074" unicode="&#x2074;" horiz-adv-x="753" 
d="M664 1237q34 0 34 -35v-98q0 -35 -34 -35h-25q-12 0 -12 -12v-168q0 -35 -35 -35h-117q-35 0 -35 35v168q0 12 -12 12h-356q-35 0 -35 35v78q0 22 8 43l207 463q13 26 41 26h121q20 0 27 -12t-1 -29l-182 -422q-6 -14 10 -14h160q12 0 12 12v121q0 35 35 35h117
q35 0 35 -35v-121q0 -12 12 -12h25z" />
    <glyph glyph-name="uni2075" unicode="&#x2075;" horiz-adv-x="645" 
d="M588 1251q26 -60 26 -127q0 -64 -26 -129q-33 -73 -102.5 -115t-163.5 -42t-166 45.5t-105 122.5q-11 34 -16 55q-3 17 6 27t27 10h125q24 0 30 -15q1 -2 2 -6t2 -6l6 -12q9 -28 33 -45t56 -17q53 0 81 50q21 35 21 73q0 46 -18 76q-24 49 -82 49q-56 0 -82 -33
q-18 -24 -43 -24h-131q-35 0 -35 35v448q0 35 35 35h481q35 0 35 -35v-90q0 -35 -35 -35h-318q-12 0 -12 -12v-148q0 -15 14 -8q55 27 117 27q78 0 140.5 -40t97.5 -114z" />
    <glyph glyph-name="uni2076" unicode="&#x2076;" horiz-adv-x="663" 
d="M608 1241q19 -50 19 -117q0 -63 -19 -118q-30 -75 -103.5 -121.5t-168.5 -46.5q-94 0 -163.5 45t-102.5 123q-23 56 -23 118v365q0 103 78 165t205 62q122 0 199 -61t77 -160v-16q0 -35 -35 -35h-118q-35 0 -35 12v12q0 38 -25 63t-63 25q-43 0 -70 -26t-27 -68v-94
q0 -17 15 -6q52 37 121 37q75 0 141 -42.5t98 -115.5zM412 1032q12 17 20 37q8 19 8 47q0 38 -12 62q-9 28 -33.5 44.5t-56.5 16.5q-46 0 -72 -33q-12 -17 -20 -37q-10 -17 -10 -51q0 -40 14 -65q9 -25 32.5 -40.5t55.5 -15.5q50 0 74 35z" />
    <glyph glyph-name="uni2077" unicode="&#x2077;" horiz-adv-x="608" 
d="M170 854q-18 0 -25.5 11.5t-1.5 29.5l246 645q3 14 -8 14h-201q-12 0 -12 -12v-65q0 -35 -35 -35h-82q-35 0 -35 35l2 202q0 35 35 35h504q35 0 35 -35v-102q0 -22 -8 -43l-252 -653q-9 -27 -39 -27h-123z" />
    <glyph glyph-name="uni2078" unicode="&#x2078;" horiz-adv-x="669" 
d="M602 1223q23 -50 23 -121q0 -60 -21 -109q-28 -70 -101 -112.5t-171 -42.5q-92 0 -162.5 39.5t-103.5 113.5q-25 54 -25 113q0 58 27 117q20 43 55 71q13 10 2 17q-31 25 -53 67q-25 46 -25 103q0 54 25 106q32 67 100 103t162 36q95 0 164 -37.5t100 -103.5
q25 -52 25 -102q0 -56 -27 -105q-22 -42 -53 -67q-11 -7 2 -17q34 -22 57 -69zM242 1507q-11 -22 -11 -41q0 -22 13 -45q21 -53 92 -53q58 0 82 35q11 14 18 37q2 8 2 24q0 19 -2 27q-7 23 -18 37q-29 37 -84 37q-69 0 -92 -58zM414 1036q10 14 16 37q4 14 4 43q0 27 -6 51
q-11 29 -35.5 46.5t-58.5 17.5q-33 0 -57 -17.5t-35 -46.5q-9 -24 -9 -51q0 -30 13 -59q9 -28 32.5 -44t55.5 -16q55 0 80 39z" />
    <glyph glyph-name="uni2079" unicode="&#x2079;" horiz-adv-x="663" 
d="M594 1548q22 -54 22 -118v-365q0 -104 -77.5 -165.5t-204.5 -61.5q-122 0 -199.5 61t-77.5 160v16q0 35 35 35h119q35 0 35 -12v-13q0 -38 25 -63t63 -25q43 0 69.5 26t26.5 69v94q0 16 -14 6q-52 -37 -121 -37q-75 0 -142 42.5t-98 115.5q-18 48 -18 117q0 66 18 118
q30 75 104 121.5t169 46.5q94 0 163.5 -45t102.5 -123zM397 1348q16 23 21 36q10 18 10 52q0 40 -14 65q-9 25 -32.5 40t-55.5 15q-50 0 -74 -34q-14 -22 -21 -37q-8 -19 -8 -47q0 -36 13 -62q9 -28 33.5 -44.5t56.5 -16.5q45 0 71 33z" />
    <glyph glyph-name="franc" unicode="&#x20a3;" horiz-adv-x="1286" 
d="M1257 1221q0 -35 -34 -35h-658q-12 0 -12 -12v-314q0 -12 12 -12h428q35 0 35 -35v-178q0 -35 -35 -35h-428q-12 0 -12 -12v-166q0 -12 12 -12h250q35 0 35 -35v-105q0 -34 -35 -34h-250q-12 0 -12 -13v-188q0 -35 -35 -35h-219q-35 0 -35 35v188q0 13 -12 13h-92
q-35 0 -35 34v105q0 35 35 35h92q12 0 12 12v977q0 35 35 35h924q34 0 34 -35v-178z" />
    <glyph glyph-name="Euro" unicode="&#x20ac;" horiz-adv-x="1298" 
d="M737 231q72 0 120.5 39t62.5 105q9 34 41 28l217 -38q35 -7 26 -41q-29 -157 -154 -248.5t-313 -91.5q-215 0 -345 124.5t-130 331.5v72q0 12 -12 12h-119q-35 0 -35 35v82q0 35 35 35h119q12 0 12 12v60q0 12 -12 12h-119q-35 0 -35 35v82q0 34 35 34h119q12 0 12 13v71
q0 209 129.5 332t345.5 123q192 0 317.5 -93t153.5 -255q6 -36 -30 -39l-220 -27q-31 -3 -40 31q-14 62 -62.5 98.5t-118.5 36.5q-83 0 -134.5 -54.5t-51.5 -143.5v-80q0 -13 12 -13h393q18 0 26 -10.5t3 -28.5l-24 -84q-9 -28 -39 -28h-359q-12 0 -12 -12v-60q0 -12 12 -12
h324q38 0 28 -39l-24 -84q-10 -29 -39 -29h-289q-12 0 -12 -12v-84q0 -88 51.5 -142.5t134.5 -54.5z" />
    <glyph glyph-name="uni20BA" unicode="&#x20ba;" horiz-adv-x="1327" 
d="M950 543q3 35 37 35h219q36 0 33 -35q-5 -103 -46.5 -196.5t-115 -169t-189.5 -122t-259 -51.5q-176 -4 -264 -4q-35 0 -35 35v500q0 14 -15 10l-139 -39q-33 -10 -43 22l-27 95q-10 33 23 43l190 53q11 4 11 12v82q0 14 -15 10l-139 -39q-33 -10 -43 23l-27 94
q-10 33 23 43l190 53q11 4 11 13v389q0 35 35 35h219q34 0 34 -35v-305q0 -6 4.5 -9.5t10.5 -1.5l278 78q33 10 43 -22l27 -92q10 -33 -23 -43l-329 -93q-11 -4 -11 -12v-84q0 -14 15 -10l278 78q33 10 43 -23l27 -92q10 -33 -23 -43l-329 -92q-11 -4 -11 -12v-361
q0 -13 17 -10q147 13 226.5 92t88.5 201z" />
    <glyph glyph-name="uni20BD" unicode="&#x20bd;" horiz-adv-x="1435" 
d="M918 571h-287q-13 0 -13 -12v-92q0 -12 13 -12h377q34 0 34 -35v-98q0 -35 -34 -35h-377q-13 0 -13 -13v-239q0 -35 -34 -35h-219q-35 0 -35 35v239q0 13 -13 13h-157q-35 0 -35 35v98q0 35 35 35h157q13 0 13 12v92q0 12 -13 12h-157q-35 0 -35 35v164q0 35 35 35h157
q13 0 13 12v584q0 35 35 35h565q203 0 328.5 -121.5t125.5 -315.5q0 -190 -133 -309t-333 -119zM631 1186q-13 0 -13 -12v-357q0 -12 13 -12h256q100 0 154.5 48.5t54.5 139.5q0 92 -54.5 142.5t-154.5 50.5h-256z" />
    <glyph glyph-name="uni2113" unicode="&#x2113;" horiz-adv-x="1026" 
d="M743 250q28 25 50 0l98 -109q22 -26 2 -49q-99 -108 -299 -108q-157 0 -245.5 93t-88.5 259v53q0 15 -14 8l-39 -24q-33 -20 -45 16l-41 123q-9 28 16 45l113 70q8 8 8 16l-2 387q-1 69 20.5 139.5t62.5 133.5t111 103.5t156 41.5q133 3 216 -82t83 -219
q0 -86 -30.5 -167.5t-88 -154t-125.5 -134.5t-159 -126q-8 -5 -8 -16l2 -170q0 -178 125 -178q69 0 122 49zM492 985l2 -162q0 -20 14 -6q182 165 182 305q0 57 -22 91.5t-66 31.5q-113 -11 -110 -260z" />
    <glyph glyph-name="trademark" unicode="&#x2122;" horiz-adv-x="1372" 
d="M63 1298q-34 0 -34 35v66q0 35 34 35h496q35 0 35 -35v-66q0 -35 -35 -35h-160q-12 0 -12 -12v-536q0 -35 -35 -35h-88q-35 0 -35 35v536q0 12 -12 12h-154zM1139 1411q16 23 43 23h92q35 0 35 -35v-649q0 -35 -35 -35h-88q-35 0 -35 35v417q0 8 -4.5 11t-9.5 -4
l-86 -121q-14 -23 -41 -23h-17q-27 0 -41 23l-86 121q-4 7 -9 4t-5 -11v-417q0 -35 -35 -35h-88q-35 0 -35 35v649q0 35 35 35h92q27 0 43 -23l129 -180q3 -5 8.5 -5t8.5 5z" />
    <glyph glyph-name="uni2126" unicode="&#x2126;" horiz-adv-x="1300" 
d="M131 0q-35 0 -35 35v178q0 35 35 35h76q8 0 10 4t-4 10q-102 117 -102 299v375q0 231 147.5 372.5t390.5 141.5q244 0 392.5 -141.5t148.5 -372.5v-375q0 -180 -103 -299q-6 -6 -3.5 -10t10.5 -4h75q35 0 35 -35v-178q0 -35 -35 -35h-428q-34 0 -34 35v188q0 28 30 37
q72 23 118 90.5t46 161.5v430q0 119 -69 190.5t-183 71.5q-113 0 -181.5 -72t-68.5 -190v-430q0 -94 46.5 -162t117.5 -92q31 -9 31 -37v-186q0 -35 -35 -35h-428z" />
    <glyph glyph-name="estimated" unicode="&#x212e;" horiz-adv-x="1705" 
d="M852 1450q217 0 390.5 -95.5t270.5 -264.5t97 -379q0 -9 -35 -9h-1231q-12 0 -12 -12v-407q0 -9 6 -15q94 -101 226 -157t288 -56q185 0 349 93t249 243q12 25 41 25h12q20 0 27 -11t-2 -30q-93 -175 -278 -283t-398 -108q-162 0 -302.5 55t-240 150.5t-156.5 231
t-57 290.5q0 210 97 379t270 264.5t389 95.5zM340 1165q-6 -6 -6 -14v-365q0 -12 12 -12h1014q12 0 12 12v363q0 8 -6 14q-94 102 -226.5 158.5t-287.5 56.5t-286.5 -56t-225.5 -157z" />
    <glyph glyph-name="oneeighth" unicode="&#x215b;" horiz-adv-x="1642" 
d="M334 608q0 -35 -35 -35h-117q-35 0 -35 35v649q0 13 -12 13l-41 -4q-37 -3 -37 32v70q0 27 27 39l43 18q21 9 43 9h129q35 0 35 -35v-791zM1024 1409q16 25 41 25h133q20 0 27.5 -12t-2.5 -29l-799 -1368q-16 -25 -41 -25h-133q-20 0 -27.5 12t2.5 29zM1575 369
q22 -48 22 -121q0 -62 -20 -109q-28 -70 -101 -112.5t-171 -42.5q-92 0 -163 39.5t-104 113.5q-24 52 -24 113q0 60 26 117q19 42 56 71q13 10 2 17q-33 26 -54 67q-24 44 -24 103q0 57 24 106q32 67 100.5 103t162.5 36q95 0 164 -37.5t100 -103.5q24 -49 24 -102
q0 -58 -26 -105q-22 -42 -53 -67q-11 -7 2 -17q34 -22 57 -69zM1214 653q-10 -20 -10 -41q0 -22 13 -45q21 -53 92 -53q58 0 82 35q11 14 18 37q2 8 2 24q0 19 -2 27q-7 23 -18 37q-29 37 -84 37q-70 0 -93 -58zM1386 182q11 17 17 37q4 14 4 43q0 27 -6 51
q-11 29 -35.5 46.5t-58.5 17.5q-33 0 -57.5 -17.5t-35.5 -46.5q-8 -21 -8 -51t13 -59q9 -28 32.5 -44t55.5 -16q54 0 79 39z" />
    <glyph glyph-name="threeeighths" unicode="&#x215c;" horiz-adv-x="1828" 
d="M594 725q-31 -73 -101 -115.5t-161 -42.5q-95 0 -166.5 47.5t-104.5 128.5q-14 33 -18 84q-3 35 33 35h119q29 0 36 -33q2 -20 11 -41q22 -59 90 -59q56 0 82 45q20 36 20 90q0 62 -22 99q-24 47 -82 47q-17 0 -43 -11q-32 -16 -49 7l-56 67q-23 26 4 49l172 142
q6 6 4 10t-10 4h-258q-35 0 -35 35v90q0 35 35 35h481q35 0 35 -35v-98q0 -25 -18 -43l-146 -129q-13 -13 5 -17q95 -21 145 -119q25 -64 25 -137t-27 -135zM1210 1409q16 25 41 25h133q20 0 27.5 -12t-2.5 -29l-799 -1368q-16 -25 -41 -25h-133q-20 0 -27 12t3 29z
M1761 369q23 -50 23 -121q0 -60 -21 -109q-28 -70 -101 -112.5t-171 -42.5q-92 0 -162.5 39.5t-103.5 113.5q-25 54 -25 113q0 58 27 117q20 43 55 71q13 10 2 17q-31 25 -53 67q-25 46 -25 103q0 54 25 106q32 67 100 103t162 36q95 0 164 -37.5t100 -103.5q25 -52 25 -102
q0 -56 -27 -105q-22 -42 -53 -67q-11 -7 2 -17q34 -22 57 -69zM1401 653q-10 -20 -10 -41q0 -24 12 -45q21 -53 92 -53q58 0 82 35q11 14 18 37q2 8 2 24q0 19 -2 27q-7 23 -18 37q-29 37 -84 37q-69 0 -92 -58zM1573 182q9 14 16 37q4 14 4 43q0 27 -6 51
q-11 29 -35.5 46.5t-58.5 17.5q-33 0 -57 -17.5t-35 -46.5q-8 -21 -8 -51q0 -32 12 -59q9 -28 32.5 -44t55.5 -16q55 0 80 39z" />
    <glyph glyph-name="fiveeighths" unicode="&#x215d;" horiz-adv-x="1804" 
d="M1186 1409q16 25 41 25h133q20 0 27 -12t-3 -29l-798 -1368q-16 -25 -41 -25h-133q-20 0 -27.5 12t2.5 29zM588 717q-33 -73 -102.5 -115.5t-163.5 -42.5t-166 45.5t-105 122.5q-11 34 -16 55q-3 17 6 27t27 10h125q24 0 30 -14q1 -2 2 -6t2 -6t3 -6.5t3 -6.5
q9 -28 33 -44.5t56 -16.5q54 0 81 49q21 35 21 74q0 46 -18 76q-24 49 -82 49q-56 0 -82 -33q-19 -25 -43 -25h-131q-35 0 -35 35v449q0 34 35 34h481q35 0 35 -34v-90q0 -35 -35 -35h-318q-12 0 -12 -13v-147q0 -15 14 -8q53 26 117 26q78 0 140.5 -39.5t97.5 -113.5
q26 -60 26 -127q0 -64 -26 -129zM1737 369q22 -48 22 -121q0 -62 -20 -109q-28 -70 -101.5 -112.5t-171.5 -42.5q-92 0 -162.5 39.5t-103.5 113.5q-24 52 -24 113q0 60 26 117q20 43 55 71q13 10 3 17q-33 26 -54 67q-24 44 -24 103q0 57 24 106q32 67 100 103t162 36
q95 0 164.5 -37.5t100.5 -103.5q24 -49 24 -102q0 -58 -26 -105q-21 -41 -54 -67q-11 -7 2 -17q36 -23 58 -69zM1376 653q-10 -20 -10 -41q0 -24 12 -45q21 -53 92 -53q58 0 82 35q13 15 19 37q2 8 2 24q0 19 -2 27q-6 22 -19 37q-29 37 -84 37q-69 0 -92 -58zM1548 182
q11 17 17 37q4 14 4 43q0 27 -6 51q-11 29 -36 46.5t-59 17.5q-33 0 -57 -17.5t-35 -46.5q-8 -21 -8 -51q0 -32 12 -59q9 -28 32.5 -44t55.5 -16q55 0 80 39z" />
    <glyph glyph-name="seveneighths" unicode="&#x215e;" horiz-adv-x="1695" 
d="M332 600q-9 -27 -39 -27h-123q-18 0 -25.5 11.5t-1.5 29.5l246 646q3 14 -8 14h-201q-12 0 -12 -12v-66q0 -35 -35 -35h-82q-35 0 -35 35l2 203q0 35 35 35h504q35 0 35 -35v-103q0 -22 -8 -43zM1077 1409q16 25 41 25h133q20 0 27.5 -12t-2.5 -29l-799 -1368
q-16 -25 -41 -25h-133q-20 0 -27 12t3 29zM1628 369q23 -50 23 -121q0 -60 -21 -109q-28 -70 -101 -112.5t-171 -42.5q-92 0 -162.5 39.5t-103.5 113.5q-25 54 -25 113q0 58 27 117q20 43 55 71q13 10 2 17q-31 25 -53 67q-25 46 -25 103q0 54 25 106q32 67 100 103t162 36
q95 0 164 -37.5t100 -103.5q25 -52 25 -102q0 -56 -27 -105q-22 -42 -53 -67q-11 -7 2 -17q34 -22 57 -69zM1268 653q-11 -22 -11 -41q0 -22 13 -45q21 -53 92 -53q58 0 82 35q11 14 18 37q2 8 2 24q0 19 -2 27q-7 23 -18 37q-29 37 -84 37q-69 0 -92 -58zM1440 182
q10 14 16 37q4 14 4 43q0 27 -6 51q-11 29 -35.5 46.5t-58.5 17.5q-33 0 -57 -17.5t-35 -46.5q-8 -21 -8 -51q0 -32 12 -59q9 -28 32.5 -44t55.5 -16q55 0 80 39z" />
    <glyph glyph-name="partialdiff" unicode="&#x2202;" horiz-adv-x="1218" 
d="M922 1268q105 -123 149.5 -304.5t34.5 -363.5q-6 -102 -29 -191t-67 -168t-107 -135.5t-154 -89t-202 -32.5q-221 0 -353.5 123t-132.5 342q0 117 41 209.5t110.5 148.5t157 84.5t183.5 26.5q112 -3 223 -50q15 -6 12 11q-23 127 -79 196q-67 85 -174 94q-116 7 -240 -59
q-15 -8 -28 -3.5t-19 19.5l-72 193q-13 32 19 45q180 87 358 80q228 -9 369 -176zM561 231q108 0 170 84t76 242q0 6 -4 14q-37 55 -97 85.5t-128 27.5q-95 -2 -161.5 -65t-66.5 -162q0 -97 59.5 -161.5t151.5 -64.5z" />
    <glyph glyph-name="uni2206" unicode="&#x2206;" horiz-adv-x="1353" 
d="M84 0q-35 0 -35 35v188q0 22 8 43l502 1141q13 27 41 27h152q28 0 41 -27l503 -1143q9 -24 9 -43v-186q0 -35 -35 -35h-1186zM336 262q-6 -14 10 -14h662q16 0 10 14l-334 785q-3 7 -8 7t-8 -7z" />
    <glyph glyph-name="product" unicode="&#x220f;" horiz-adv-x="1290" 
d="M1143 1638q35 0 35 -34v-1979q0 -35 -35 -35h-219q-35 0 -35 35v1753q0 13 -12 13h-451q-12 0 -12 -13v-1753q0 -35 -35 -35h-219q-35 0 -35 35v1979q0 34 35 34h983z" />
    <glyph glyph-name="summation" unicode="&#x2211;" horiz-adv-x="1218" 
d="M160 -410q-35 0 -35 35v191q0 22 12 43l461 786q7 10 0 17l-459 651q-14 20 -14 43v188q0 35 35 35h948q35 0 35 -35v-178q0 -35 -35 -35h-674q-8 0 -10 -4t2 -10l469 -641q16 -22 2 -47l-473 -776q-3 -6 -0.5 -10.5t8.5 -4.5h676q35 0 35 -35v-178q0 -35 -35 -35h-948z
" />
    <glyph glyph-name="minus" unicode="&#x2212;" horiz-adv-x="995" 
d="M94 492q-35 0 -35 34v179q0 34 35 34h807q35 0 35 -34v-179q0 -34 -35 -34h-807z" />
    <glyph glyph-name="uni2215" unicode="&#x2215;" horiz-adv-x="1079" 
d="M86 0q-20 0 -28 12t1 29l705 1368q12 25 41 25h188q20 0 28 -12t-1 -29l-703 -1368q-13 -25 -41 -25h-190z" />
    <glyph glyph-name="uni2219" unicode="&#x2219;" horiz-adv-x="649" 
d="M326 342q-110 0 -188.5 78.5t-78.5 187.5q0 112 78 188t189 76q110 0 187 -76t77 -188q0 -109 -77.5 -187.5t-186.5 -78.5z" />
    <glyph glyph-name="radical" unicode="&#x221a;" horiz-adv-x="1656" 
d="M381 -410q-29 0 -39 29l-291 774q-12 33 21 43l204 70q33 13 46 -23l143 -407q3 -8 8 -7.5t6 9.5l404 1519q7 31 39 31h596q34 0 34 -35v-178q0 -35 -34 -35h-396q-10 0 -12 -10l-467 -1749q-10 -31 -39 -31h-223z" />
    <glyph glyph-name="infinity" unicode="&#x221e;" horiz-adv-x="1570" 
d="M1133 1032q165 0 271.5 -108.5t106.5 -270.5q0 -164 -108.5 -271.5t-278.5 -107.5q-106 0 -186 45t-156 136q-3 5 -8 5t-8 -5q-74 -83 -154.5 -132t-181.5 -49q-157 0 -264 111t-107 272q0 160 108 267.5t269 107.5q186 0 334 -178q10 -10 16 0q79 88 161.5 133t185.5 45
zM432 498q55 0 97 34.5t102 116.5q6 9 0 17q-58 80 -97.5 111.5t-93.5 31.5q-70 0 -113.5 -42.5t-43.5 -109.5q0 -69 43 -114t106 -45zM1126 498q75 0 118.5 42.5t43.5 112.5q0 69 -42 112.5t-109 43.5q-58 0 -108 -34.5t-111 -112.5q-7 -10 4 -23q56 -78 100 -109.5
t104 -31.5z" />
    <glyph glyph-name="integral" unicode="&#x222b;" horiz-adv-x="864" 
d="M90 -410q-37 0 -37 35v146q0 34 35 34h62q71 1 99 34t30 108l10 1163q1 104 23 166.5t80 99t144 48.5t230 10q37 0 37 -35v-146q0 -34 -35 -34h-59q-72 -1 -100.5 -34t-30.5 -108l-11 -1163q-2 -104 -23.5 -166t-79.5 -99t-144 -49t-230 -10z" />
    <glyph glyph-name="approxequal" unicode="&#x2248;" horiz-adv-x="1093" 
d="M729 651q-85 0 -180 56q-105 61 -170 61q-79 0 -129 -66q-18 -27 -47 -8l-119 80q-26 19 -14 45q37 88 120 143.5t179 55.5q80 0 172 -53q8 -4 32.5 -18t35 -19.5t30 -14t36 -11.5t34.5 -3q64 0 112 66q22 28 49 10l140 -90q29 -18 14 -45q-40 -85 -121 -137t-174 -52z
M729 215q-87 0 -180 55q-33 19 -50.5 28.5t-53.5 21.5t-66 12q-79 0 -129 -66q-18 -27 -47 -8l-119 80q-26 19 -14 45q37 88 120 143.5t179 55.5q78 0 172 -54q8 -4 27.5 -15t28.5 -16t26 -13t28.5 -11.5t27 -6.5t30.5 -3q65 0 112 65q22 29 49 11l140 -90q29 -18 14 -46
q-40 -85 -120.5 -136.5t-174.5 -51.5z" />
    <glyph glyph-name="notequal" unicode="&#x2260;" horiz-adv-x="995" 
d="M936 750q0 -35 -35 -35h-268q-12 0 -15 -10l-53 -121q-6 -15 10 -15h326q35 0 35 -34v-179q0 -34 -35 -34h-442q-11 0 -15 -11l-69 -157q-13 -27 -41 -27h-101q-20 0 -27 12t1 29l61 139q6 15 -10 15h-164q-35 0 -35 34v179q0 34 35 34h281q10 0 14 11l53 120
q6 15 -10 15h-338q-35 0 -35 35v178q0 35 35 35h455q11 0 14 10l68 153q13 27 41 27h100q20 0 27.5 -12t-0.5 -29l-60 -135q-6 -14 11 -14h151q35 0 35 -35v-178z" />
    <glyph glyph-name="lessequal" unicode="&#x2264;" horiz-adv-x="995" 
d="M936 360q0 -20 -12 -27t-29 1l-809 356q-27 14 -27 41v193q0 28 27 41l809 356q17 8 29 0.5t12 -27.5v-200q0 -27 -27 -39l-534 -219q-7 -3 -7 -8.5t7 -8.5l534 -217q27 -12 27 -39v-203zM936 35q0 -35 -35 -35h-807q-35 0 -35 35v178q0 35 35 35h807q35 0 35 -35v-178z
" />
    <glyph glyph-name="greaterequal" unicode="&#x2265;" horiz-adv-x="995" 
d="M100 334q-17 -8 -29 -1t-12 27v203q0 27 27 39l535 217q7 3 7 8.5t-7 8.5l-535 219q-27 12 -27 39v200q0 20 12 27.5t29 -0.5l809 -356q27 -13 27 -41v-193q0 -27 -27 -41zM94 0q-35 0 -35 35v178q0 35 35 35h807q35 0 35 -35v-178q0 -35 -35 -35h-807z" />
    <glyph glyph-name="lozenge" unicode="&#x25ca;" horiz-adv-x="1114" 
d="M487 -111q-27 0 -41 27l-374 776q-12 24 0 49l377 779q12 24 40 24h136q29 0 41 -24l376 -779q12 -25 0 -49l-374 -776q-14 -27 -41 -27h-140zM549 211q3 -6 8 -6t8 6l221 498q4 8 0 16l-221 498q-3 6 -8 6t-8 -6l-223 -498q-4 -8 0 -16z" />
    <glyph glyph-name="i.loclTRK" horiz-adv-x="493" 
d="M238 1180q-60 0 -97 36.5t-37 96.5t37 96.5t97 36.5q59 0 95 -36.5t36 -96.5t-36 -96.5t-95 -36.5zM135 0q-35 0 -35 35v983q0 35 35 35h219q35 0 35 -35v-983q0 -35 -35 -35h-219z" />
    <glyph glyph-name="a.alt" horiz-adv-x="1136" 
d="M741 1018q0 35 35 35h219q35 0 35 -35v-983q0 -35 -35 -35h-219q-35 0 -35 35v55q0 7 -4.5 8.5t-9.5 -4.5q-83 -110 -233 -110q-139 0 -247 82.5t-149 218.5q-35 99 -35 245q0 152 39 254q45 131 149 209t243 78q152 0 233 -100q5 -6 9.5 -4t4.5 10v41zM698 324
q41 74 41 202q0 135 -43 211q-52 80 -137 80q-93 0 -143 -78q-49 -81 -49 -215q0 -122 43 -200q50 -88 149 -88q89 0 139 88z" />
    <glyph glyph-name="a.sc" horiz-adv-x="1173" 
d="M879 0q-29 0 -39 29l-39 131q-3 10 -13 10h-403q-9 0 -12 -10l-39 -131q-10 -29 -39 -29h-217q-19 0 -27 11t-2 28l365 1114q9 29 41 29h262q32 0 41 -29l366 -1114q6 -17 -1.5 -28t-26.5 -11h-217zM444 408q-3 -15 11 -15h264q13 0 10 15l-133 464q-3 8 -8 8t-8 -8z" />
    <glyph glyph-name="aacute.sc" horiz-adv-x="1173" 
d="M807 1556q22 0 28 -13t-6 -30l-131 -186q-16 -22 -43 -22h-172q-20 0 -26.5 11t2.5 30l100 186q12 24 41 24h207zM879 0q-29 0 -39 29l-39 131q-3 10 -13 10h-403q-9 0 -12 -10l-39 -131q-10 -29 -39 -29h-217q-19 0 -27 11t-2 28l365 1114q9 29 41 29h262q32 0 41 -29
l366 -1114q6 -17 -1.5 -28t-26.5 -11h-217zM444 408q-3 -15 11 -15h264q13 0 10 15l-133 464q-3 8 -8 8t-8 -8z" />
    <glyph glyph-name="abreve.sc" horiz-adv-x="1173" 
d="M584 1241q-97 0 -168.5 59.5t-85.5 149.5q-3 37 35 37h81q28 0 37 -33q9 -37 37.5 -59.5t63.5 -22.5q37 0 65 22.5t37 59.5q9 33 37 33h82q38 0 35 -35q-14 -91 -86 -151t-170 -60zM879 0q-29 0 -39 29l-39 131q-3 10 -13 10h-403q-9 0 -12 -10l-39 -131q-10 -29 -39 -29
h-217q-19 0 -27 11t-2 28l365 1114q9 29 41 29h262q32 0 41 -29l366 -1114q6 -17 -1.5 -28t-26.5 -11h-217zM444 408q-3 -15 11 -15h264q13 0 10 15l-133 464q-3 8 -8 8t-8 -8z" />
    <glyph glyph-name="uni01CE.sc" horiz-adv-x="1173" 
d="M743 1305q-16 -23 -41 -23h-243q-25 0 -41 23l-129 194q-11 17 -5 30t27 13h148q25 0 41 -22l75 -117q3 -6 8.5 -6t8.5 6l76 117q16 22 41 22h145q22 0 28.5 -13t-5.5 -30zM879 0q-29 0 -39 29l-39 131q-3 10 -13 10h-403q-9 0 -12 -10l-39 -131q-10 -29 -39 -29h-217
q-19 0 -27 11t-2 28l365 1114q9 29 41 29h262q32 0 41 -29l366 -1114q6 -17 -1.5 -28t-26.5 -11h-217zM444 408q-3 -15 11 -15h264q13 0 10 15l-133 464q-3 8 -8 8t-8 -8z" />
    <glyph glyph-name="acircumflex.sc" horiz-adv-x="1173" 
d="M592 1438q-3 6 -8.5 6t-8.5 -6l-75 -117q-16 -23 -41 -23h-152q-22 0 -28 13t6 30l143 199q15 21 43 21h221q28 0 43 -21l148 -199q12 -17 5.5 -30t-28.5 -13h-151q-25 0 -41 23zM879 0q-29 0 -39 29l-39 131q-3 10 -13 10h-403q-9 0 -12 -10l-39 -131q-10 -29 -39 -29
h-217q-19 0 -27 11t-2 28l365 1114q9 29 41 29h262q32 0 41 -29l366 -1114q6 -17 -1.5 -28t-26.5 -11h-217zM444 408q-3 -15 11 -15h264q13 0 10 15l-133 464q-3 8 -8 8t-8 -8z" />
    <glyph glyph-name="adieresis.sc" horiz-adv-x="1173" 
d="M387 1298q-63 0 -104 40t-41 104t41 104.5t104 40.5q64 0 103.5 -40t39.5 -105t-39.5 -104.5t-103.5 -39.5zM780 1298q-66 0 -105.5 39.5t-39.5 104.5t39.5 105t105.5 40q64 0 104 -40t40 -105q0 -64 -40 -104t-104 -40zM879 0q-29 0 -39 29l-39 131q-3 10 -13 10h-403
q-9 0 -12 -10l-39 -131q-10 -29 -39 -29h-217q-19 0 -27 11t-2 28l365 1114q9 29 41 29h262q32 0 41 -29l366 -1114q6 -17 -1.5 -28t-26.5 -11h-217zM444 408q-3 -15 11 -15h264q13 0 10 15l-133 464q-3 8 -8 8t-8 -8z" />
    <glyph glyph-name="agrave.sc" horiz-adv-x="1173" 
d="M690 1346q9 -19 2.5 -30t-26.5 -11h-172q-25 0 -41 22l-131 186q-12 17 -6.5 30t26.5 13h207q29 0 41 -24zM879 0q-29 0 -39 29l-39 131q-3 10 -13 10h-403q-9 0 -12 -10l-39 -131q-10 -29 -39 -29h-217q-19 0 -27 11t-2 28l365 1114q9 29 41 29h262q32 0 41 -29
l366 -1114q6 -17 -1.5 -28t-26.5 -11h-217zM444 408q-3 -15 11 -15h264q13 0 10 15l-133 464q-3 8 -8 8t-8 -8z" />
    <glyph glyph-name="amacron.sc" horiz-adv-x="1173" 
d="M850 1507q35 0 35 -34v-125q0 -35 -35 -35h-533q-34 0 -34 35v125q0 34 34 34h533zM879 0q-29 0 -39 29l-39 131q-3 10 -13 10h-403q-9 0 -12 -10l-39 -131q-10 -29 -39 -29h-217q-19 0 -27 11t-2 28l365 1114q9 29 41 29h262q32 0 41 -29l366 -1114q6 -17 -1.5 -28
t-26.5 -11h-217zM444 408q-3 -15 11 -15h264q13 0 10 15l-133 464q-3 8 -8 8t-8 -8z" />
    <glyph glyph-name="aogonek.sc" horiz-adv-x="1191" 
d="M1092 -227q37 9 43 -25l10 -82q3 -33 -25 -41q-39 -13 -82.5 -17t-90.5 3t-85 39t-53 86q-33 134 106 250q6 4 4 9t-10 5h-30q-29 0 -39 29l-39 131q-3 10 -13 10h-403q-9 0 -12 -10l-39 -131q-10 -29 -39 -29h-217q-19 0 -27 11t-2 28l365 1114q9 29 41 29h262
q32 0 41 -29l366 -1114q7 -19 9.5 -29t1.5 -10q-3 0 -11 -4q-149 -104 -129 -180q9 -30 35.5 -40.5t61.5 -2.5zM444 408q-3 -15 11 -15h264q13 0 10 15l-133 464q-3 8 -8 8t-8 -8z" />
    <glyph glyph-name="aring.sc" horiz-adv-x="1173" 
d="M584 1276q-97 0 -163.5 66t-66.5 161t66.5 161.5t163.5 66.5q95 0 162 -66.5t67 -161.5t-67 -161t-162 -66zM584 1602q-42 0 -70.5 -28.5t-28.5 -70.5q0 -40 29 -68t70 -28q40 0 68 28t28 68q0 42 -28 70.5t-68 28.5zM879 0q-29 0 -39 29l-39 131q-3 10 -13 10h-403
q-9 0 -12 -10l-39 -131q-10 -29 -39 -29h-217q-19 0 -27 11t-2 28l365 1114q9 29 41 29h262q32 0 41 -29l366 -1114q6 -17 -1.5 -28t-26.5 -11h-217zM444 408q-3 -15 11 -15h264q13 0 10 15l-133 464q-3 8 -8 8t-8 -8z" />
    <glyph glyph-name="atilde.sc" horiz-adv-x="1173" 
d="M508 1389q-48 0 -76 -35q-23 -30 -47 -11l-72 50q-27 20 -12 47q28 67 77.5 101t108.5 34q57 0 134 -47q67 -37 98 -37q43 0 69 37q22 28 48 10l73 -49q27 -20 13 -49q-38 -67 -91.5 -101t-107.5 -34q-57 0 -135 51q-49 33 -80 33zM879 0q-29 0 -39 29l-39 131
q-3 10 -13 10h-403q-9 0 -12 -10l-39 -131q-10 -29 -39 -29h-217q-19 0 -27 11t-2 28l365 1114q9 29 41 29h262q32 0 41 -29l366 -1114q6 -17 -1.5 -28t-26.5 -11h-217zM444 408q-3 -15 11 -15h264q13 0 10 15l-133 464q-3 8 -8 8t-8 -8z" />
    <glyph glyph-name="ae.sc" horiz-adv-x="1708" 
d="M1653 969q0 -35 -35 -35h-528q-13 0 -13 -12v-187q0 -12 13 -12h327q35 0 35 -35v-178q0 -35 -35 -35h-327q-13 0 -13 -12v-203q0 -12 13 -12h528q35 0 35 -35v-178q0 -35 -35 -35h-797q-35 0 -35 35v123q0 12 -12 12h-321q-12 0 -15 -8l-69 -137q-11 -25 -41 -25h-244
q-20 0 -28 12t1 29l580 1116q13 25 41 25h940q35 0 35 -35v-178zM563 408q-6 -15 8 -15h203q12 0 12 13v411q0 9 -5 11t-9 -7z" />
    <glyph glyph-name="b.sc" horiz-adv-x="1087" 
d="M864 616q-8 -3 -8 -8t8 -8q152 -82 152 -264q0 -88 -33.5 -154t-94 -105t-137.5 -58t-171 -19h-457q-35 0 -35 35v1112q0 35 35 35h442q213 0 323.5 -78t110.5 -254q0 -166 -135 -234zM389 934q-12 0 -12 -12v-195q0 -12 12 -12h199q57 0 92 30t35 78q0 51 -35 81t-92 30
h-199zM602 250q57 0 91 31.5t34 85.5q0 51 -34 81.5t-91 30.5h-213q-12 0 -12 -12v-205q0 -12 12 -12h213z" />
    <glyph glyph-name="c.sc" horiz-adv-x="1064" 
d="M539 -14q-214 0 -342.5 125.5t-128.5 334.5v293q0 207 128.5 332t342.5 125q211 0 339 -119t128 -315q0 -20 -33 -23l-221 -12q-35 -3 -35 10v11q0 91 -49 144.5t-129 55.5q-83 1 -133 -53.5t-50 -146.5v-314q0 -91 50 -146t133 -55q80 0 129 55t49 146q0 24 35 21
l219 -13q35 -4 35 -10v-8q0 -198 -128 -318t-339 -120z" />
    <glyph glyph-name="cacute.sc" horiz-adv-x="1064" 
d="M438 1319q-20 0 -26.5 11t2.5 30l100 186q12 25 41 25h207q22 0 28 -13t-6 -30l-131 -187q-16 -22 -43 -22h-172zM539 -14q-214 0 -342.5 125.5t-128.5 334.5v293q0 207 128.5 332t342.5 125q211 0 339 -119t128 -315q0 -20 -33 -23l-221 -12q-35 -3 -35 10v11
q0 91 -49 144.5t-129 55.5q-83 1 -133 -53.5t-50 -146.5v-314q0 -91 50 -146t133 -55q80 0 129 55t49 146q0 24 35 21l219 -13q35 -4 35 -10v-8q0 -198 -128 -318t-339 -120z" />
    <glyph glyph-name="ccaron.sc" horiz-adv-x="1064" 
d="M414 1296q-25 0 -41 23l-129 194q-11 17 -5 30t27 13h148q25 0 41 -22l75 -117q3 -6 8.5 -6t8.5 6l76 117q16 22 41 22h145q22 0 28 -13t-6 -30l-133 -194q-16 -23 -41 -23h-243zM539 -14q-214 0 -342.5 125.5t-128.5 334.5v293q0 207 128.5 332t342.5 125
q211 0 339 -119t128 -315q0 -20 -33 -23l-221 -12q-35 -3 -35 10v11q0 91 -49 144.5t-129 55.5q-83 1 -133 -53.5t-50 -146.5v-314q0 -91 50 -146t133 -55q80 0 129 55t49 146q0 24 35 21l219 -13q35 -4 35 -10v-8q0 -198 -128 -318t-339 -120z" />
    <glyph glyph-name="ccedilla.sc" horiz-adv-x="1064" 
d="M1006 752q0 -10 -33 -13l-221 -12q-35 -3 -35 10v11q0 91 -49 144.5t-129 55.5q-83 1 -133 -53.5t-50 -146.5v-314q0 -91 50 -146t133 -55q80 0 129 55t49 146q0 24 35 21l219 -13q35 -4 35 -10v-8q0 -176 -103.5 -292.5t-277.5 -139.5q-8 -2 -9 -6t5 -9
q106 -106 77 -225q-15 -54 -53 -86t-85 -38.5t-90.5 -2.5t-82.5 17q-28 8 -25 41l11 81q6 34 43 25q78 -17 96 43q17 70 -109 166q-8 4 -14 6q-150 40 -235.5 156.5t-85.5 285.5v293q0 207 128.5 332t342.5 125q211 0 339 -119t128 -315v-10z" />
    <glyph glyph-name="cdotaccent.sc" horiz-adv-x="1064" 
d="M539 1300q-60 0 -96.5 37t-36.5 97t36.5 96.5t96.5 36.5q59 0 95 -36.5t36 -96.5t-36 -97t-95 -37zM539 -14q-214 0 -342.5 125.5t-128.5 334.5v293q0 207 128.5 332t342.5 125q211 0 339 -119t128 -315q0 -20 -33 -23l-221 -12q-35 -3 -35 10v11q0 91 -49 144.5
t-129 55.5q-83 1 -133 -53.5t-50 -146.5v-314q0 -91 50 -146t133 -55q80 0 129 55t49 146q0 24 35 21l219 -13q35 -4 35 -10v-8q0 -198 -128 -318t-339 -120z" />
    <glyph glyph-name="d.sc" horiz-adv-x="1083" 
d="M123 0q-35 0 -35 35v1112q0 35 35 35h434q206 0 332.5 -102.5t126.5 -270.5v-436q0 -167 -126.5 -270t-332.5 -103h-434zM377 260q0 -12 12 -12h178q69 0 114 48t46 124v342q0 78 -45 125t-117 47h-176q-12 0 -12 -12v-662z" />
    <glyph glyph-name="eth.sc" horiz-adv-x="1165" 
d="M639 1182q206 0 332.5 -102.5t126.5 -270.5v-436q0 -167 -126.5 -270t-332.5 -103h-434q-35 0 -35 35v463q0 12 -12 12h-35q-35 0 -35 35v123q0 34 35 34h35q12 0 12 13v432q0 35 35 35h434zM809 420v342q0 78 -45 125t-117 47h-176q-12 0 -12 -12v-207q0 -13 12 -13h100
q35 0 35 -34v-123q0 -35 -35 -35h-100q-12 0 -12 -12v-238q0 -12 12 -12h178q69 0 114 48t46 124z" />
    <glyph glyph-name="dcaron.sc" horiz-adv-x="1083" 
d="M395 1290q-25 0 -41 23l-129 194q-11 17 -4.5 30t27.5 13h147q25 0 41 -22l76 -117q3 -6 8 -6t8 6l76 117q16 22 41 22h146q22 0 28 -13t-6 -30l-133 -194q-16 -23 -41 -23h-244zM123 0q-35 0 -35 35v1112q0 35 35 35h434q206 0 332.5 -102.5t126.5 -270.5v-436
q0 -167 -126.5 -270t-332.5 -103h-434zM377 260q0 -12 12 -12h178q69 0 114 48t46 124v342q0 78 -45 125t-117 47h-176q-12 0 -12 -12v-662z" />
    <glyph glyph-name="dcroat.sc" horiz-adv-x="1165" 
d="M639 1182q206 0 332.5 -102.5t126.5 -270.5v-436q0 -167 -126.5 -270t-332.5 -103h-434q-35 0 -35 35v463q0 12 -12 12h-35q-35 0 -35 35v123q0 34 35 34h35q12 0 12 13v432q0 35 35 35h434zM809 420v342q0 78 -45 125t-117 47h-176q-12 0 -12 -12v-207q0 -13 12 -13h100
q35 0 35 -34v-123q0 -35 -35 -35h-100q-12 0 -12 -12v-238q0 -12 12 -12h178q69 0 114 48t46 124z" />
    <glyph glyph-name="e.sc" horiz-adv-x="1011" 
d="M958 969q0 -35 -34 -35h-535q-12 0 -12 -12v-187q0 -12 12 -12h336q35 0 35 -35v-178q0 -35 -35 -35h-336q-12 0 -12 -12v-203q0 -12 12 -12h535q34 0 34 -35v-178q0 -35 -34 -35h-801q-35 0 -35 35v1112q0 35 35 35h801q34 0 34 -35v-178z" />
    <glyph glyph-name="eacute.sc" horiz-adv-x="1011" 
d="M754 1579q22 0 28 -13t-6 -30l-131 -186q-16 -23 -43 -23h-172q-20 0 -26.5 11t2.5 30l100 186q12 25 41 25h207zM958 969q0 -35 -34 -35h-535q-12 0 -12 -12v-187q0 -12 12 -12h336q35 0 35 -35v-178q0 -35 -35 -35h-336q-12 0 -12 -12v-203q0 -12 12 -12h535
q34 0 34 -35v-178q0 -35 -34 -35h-801q-35 0 -35 35v1112q0 35 35 35h801q34 0 34 -35v-178z" />
    <glyph glyph-name="ecaron.sc" horiz-adv-x="1011" 
d="M690 1327q-16 -22 -41 -22h-243q-25 0 -41 22l-129 195q-11 17 -5 30t27 13h148q24 0 40 -23l76 -117q3 -6 8.5 -6t8.5 6l75 117q16 23 41 23h146q22 0 28 -13t-6 -30zM958 969q0 -35 -34 -35h-535q-12 0 -12 -12v-187q0 -12 12 -12h336q35 0 35 -35v-178q0 -35 -35 -35
h-336q-12 0 -12 -12v-203q0 -12 12 -12h535q34 0 34 -35v-178q0 -35 -34 -35h-801q-35 0 -35 35v1112q0 35 35 35h801q34 0 34 -35v-178z" />
    <glyph glyph-name="uni0229.sc" horiz-adv-x="1011" 
d="M958 969q0 -35 -34 -35h-535q-12 0 -12 -12v-187q0 -12 12 -12h336q35 0 35 -35v-178q0 -35 -35 -35h-336q-12 0 -12 -12v-203q0 -12 12 -12h535q34 0 34 -35v-178q0 -35 -34 -35h-285q-8 0 -9 -4t5 -10q101 -104 72 -219q-15 -54 -53 -86t-85.5 -39t-91 -3t-82.5 17
q-27 8 -24 41l10 82q6 33 43 24q78 -17 96 43q17 64 -86 148q-6 6 -14 6h-297q-35 0 -35 35v1112q0 35 35 35h801q34 0 34 -35v-178z" />
    <glyph glyph-name="ecircumflex.sc" horiz-adv-x="1011" 
d="M539 1460q-3 6 -8.5 6t-8.5 -6l-76 -117q-16 -22 -40 -22h-152q-22 0 -28.5 13t5.5 30l144 199q14 20 43 20h221q29 0 43 -20l147 -199q12 -17 6 -30t-28 -13h-152q-25 0 -41 22zM958 969q0 -35 -34 -35h-535q-12 0 -12 -12v-187q0 -12 12 -12h336q35 0 35 -35v-178
q0 -35 -35 -35h-336q-12 0 -12 -12v-203q0 -12 12 -12h535q34 0 34 -35v-178q0 -35 -34 -35h-801q-35 0 -35 35v1112q0 35 35 35h801q34 0 34 -35v-178z" />
    <glyph glyph-name="edieresis.sc" horiz-adv-x="1011" 
d="M334 1321q-64 0 -105 39.5t-41 103.5t41.5 105t104.5 41q64 0 103.5 -40.5t39.5 -105.5q0 -64 -39.5 -103.5t-103.5 -39.5zM727 1321q-66 0 -105.5 39t-39.5 104t39.5 105.5t105.5 40.5q64 0 103.5 -40.5t39.5 -105.5q0 -64 -39 -103.5t-104 -39.5zM958 969
q0 -35 -34 -35h-535q-12 0 -12 -12v-187q0 -12 12 -12h336q35 0 35 -35v-178q0 -35 -35 -35h-336q-12 0 -12 -12v-203q0 -12 12 -12h535q34 0 34 -35v-178q0 -35 -34 -35h-801q-35 0 -35 35v1112q0 35 35 35h801q34 0 34 -35v-178z" />
    <glyph glyph-name="edotaccent.sc" horiz-adv-x="1011" 
d="M530 1309q-60 0 -96.5 36.5t-36.5 96.5t36.5 96.5t96.5 36.5q59 0 95.5 -36.5t36.5 -96.5t-36.5 -96.5t-95.5 -36.5zM958 969q0 -35 -34 -35h-535q-12 0 -12 -12v-187q0 -12 12 -12h336q35 0 35 -35v-178q0 -35 -35 -35h-336q-12 0 -12 -12v-203q0 -12 12 -12h535
q34 0 34 -35v-178q0 -35 -34 -35h-801q-35 0 -35 35v1112q0 35 35 35h801q34 0 34 -35v-178z" />
    <glyph glyph-name="egrave.sc" horiz-adv-x="1011" 
d="M637 1368q9 -19 2 -30t-27 -11h-172q-25 0 -41 23l-131 186q-12 17 -6 30t27 13h207q28 0 41 -25zM958 969q0 -35 -34 -35h-535q-12 0 -12 -12v-187q0 -12 12 -12h336q35 0 35 -35v-178q0 -35 -35 -35h-336q-12 0 -12 -12v-203q0 -12 12 -12h535q34 0 34 -35v-178
q0 -35 -34 -35h-801q-35 0 -35 35v1112q0 35 35 35h801q34 0 34 -35v-178z" />
    <glyph glyph-name="emacron.sc" horiz-adv-x="1011" 
d="M797 1530q34 0 34 -35v-125q0 -35 -34 -35h-533q-35 0 -35 35v125q0 35 35 35h533zM958 969q0 -35 -34 -35h-535q-12 0 -12 -12v-187q0 -12 12 -12h336q35 0 35 -35v-178q0 -35 -35 -35h-336q-12 0 -12 -12v-203q0 -12 12 -12h535q34 0 34 -35v-178q0 -35 -34 -35h-801
q-35 0 -35 35v1112q0 35 35 35h801q34 0 34 -35v-178z" />
    <glyph glyph-name="eogonek.sc" horiz-adv-x="1011" 
d="M958 969q0 -35 -34 -35h-535q-12 0 -12 -12v-187q0 -12 12 -12h336q35 0 35 -35v-178q0 -35 -35 -35h-336q-12 0 -12 -12v-203q0 -12 12 -12h535q34 0 34 -35v-178q0 -35 -34 -35h-322q-8 0 -14 -6q-108 -83 -90 -150q18 -60 96 -43q37 9 43 -24l10 -82q3 -33 -24 -41
q-39 -13 -82.5 -17t-91 2.5t-85.5 38.5t-53 86q-30 118 74 222q6 4 4 9t-10 5h-256q-35 0 -35 35v1112q0 35 35 35h801q34 0 34 -35v-178z" />
    <glyph glyph-name="f.sc" horiz-adv-x="974" 
d="M956 969q0 -35 -34 -35h-533q-12 0 -12 -12v-187q0 -12 12 -12h336q35 0 35 -35v-178q0 -35 -35 -35h-336q-12 0 -12 -12v-428q0 -35 -35 -35h-219q-35 0 -35 35v1112q0 35 35 35h799q34 0 34 -35v-178z" />
    <glyph glyph-name="g.sc" horiz-adv-x="1177" 
d="M1100 737q0 -12 -35 -12h-217q-35 0 -35 10v8q0 98 -58 151.5t-159 53.5q-103 0 -163 -56t-60 -165v-287q0 -98 60.5 -152.5t162.5 -54.5q95 0 152.5 48.5t64.5 136.5q0 12 -12 12h-162q-35 0 -35 35v135q0 35 35 35h426q35 0 35 -35v-151q0 -213 -138 -338t-366 -125
q-233 0 -372.5 124.5t-139.5 338.5v286q0 214 139 337.5t373 123.5q227 0 365.5 -122t138.5 -326v-11z" />
    <glyph glyph-name="gbreve.sc" horiz-adv-x="1177" 
d="M594 1255q-97 0 -168.5 59.5t-85.5 149.5q-3 37 35 37h82q28 0 37 -33q9 -37 37 -59.5t63 -22.5q37 0 65 22.5t37 59.5q9 33 37 33h82q38 0 35 -35q-14 -91 -86 -151t-170 -60zM1100 737q0 -12 -35 -12h-217q-35 0 -35 10v8q0 98 -58 151.5t-159 53.5q-103 0 -163 -56
t-60 -165v-287q0 -98 60.5 -152.5t162.5 -54.5q95 0 152.5 48.5t64.5 136.5q0 12 -12 12h-162q-35 0 -35 35v135q0 35 35 35h426q35 0 35 -35v-151q0 -213 -138 -338t-366 -125q-233 0 -372.5 124.5t-139.5 338.5v286q0 214 139 337.5t373 123.5q227 0 365.5 -122
t138.5 -326v-11z" />
    <glyph glyph-name="uni0123.sc" horiz-adv-x="1177" 
d="M1100 737q0 -12 -35 -12h-217q-35 0 -35 10v8q0 98 -58 151.5t-159 53.5q-103 0 -163 -56t-60 -165v-287q0 -98 60.5 -152.5t162.5 -54.5q95 0 152.5 48.5t64.5 136.5q0 12 -12 12h-162q-35 0 -35 35v135q0 35 35 35h426q35 0 35 -35v-151q0 -213 -138 -338t-366 -125
q-233 0 -372.5 124.5t-139.5 338.5v286q0 214 139 337.5t373 123.5q227 0 365.5 -122t138.5 -326v-11zM408 -375q-20 0 -27 11t2 30l100 187q12 24 41 24h207q22 0 28.5 -13t-5.5 -30l-131 -186q-16 -23 -43 -23h-172z" />
    <glyph glyph-name="gdotaccent.sc" horiz-adv-x="1177" 
d="M594 1300q-60 0 -96.5 37t-36.5 97t36.5 96.5t96.5 36.5q59 0 95 -36.5t36 -96.5t-36 -97t-95 -37zM1100 737q0 -12 -35 -12h-217q-35 0 -35 10v8q0 98 -58 151.5t-159 53.5q-103 0 -163 -56t-60 -165v-287q0 -98 60.5 -152.5t162.5 -54.5q95 0 152.5 48.5t64.5 136.5
q0 12 -12 12h-162q-35 0 -35 35v135q0 35 35 35h426q35 0 35 -35v-151q0 -213 -138 -338t-366 -125q-233 0 -372.5 124.5t-139.5 338.5v286q0 214 139 337.5t373 123.5q227 0 365.5 -122t138.5 -326v-11z" />
    <glyph glyph-name="h.sc" horiz-adv-x="1085" 
d="M725 1147q0 35 35 35h219q35 0 35 -35v-1112q0 -35 -35 -35h-219q-35 0 -35 35v426q0 12 -12 12h-324q-12 0 -12 -12v-426q0 -35 -35 -35h-219q-35 0 -35 35v1112q0 35 35 35h219q35 0 35 -35v-412q0 -12 12 -12h324q12 0 12 12v412z" />
    <glyph glyph-name="hbar.sc" horiz-adv-x="1085" 
d="M1161 1055q35 0 35 -35v-127q0 -35 -35 -35h-135q-12 0 -12 -12v-811q0 -35 -35 -35h-219q-35 0 -35 35v426q0 12 -12 12h-324q-12 0 -12 -12v-426q0 -35 -35 -35h-219q-35 0 -35 35v811q0 12 -12 12h-133q-35 0 -35 35v127q0 35 35 35h133q12 0 12 12v80q0 35 35 35h219
q35 0 35 -35v-80q0 -12 12 -12h324q12 0 12 12v80q0 35 35 35h219q35 0 35 -35v-80q0 -12 12 -12h135zM713 723q12 0 12 12v111q0 12 -12 12h-324q-12 0 -12 -12v-111q0 -12 12 -12h324z" />
    <glyph glyph-name="i.sc" horiz-adv-x="464" 
d="M123 0q-35 0 -35 35v1112q0 35 35 35h219q35 0 35 -35v-1112q0 -35 -35 -35h-219z" />
    <glyph glyph-name="iacute.sc" horiz-adv-x="464" 
d="M133 1327q-20 0 -26.5 11t2.5 30l100 186q13 25 41 25h207q22 0 28 -13t-6 -30l-131 -186q-16 -23 -43 -23h-172zM123 0q-35 0 -35 35v1112q0 35 35 35h219q35 0 35 -35v-1112q0 -35 -35 -35h-219z" />
    <glyph glyph-name="icircumflex.sc" horiz-adv-x="464" 
d="M-43 1321q-22 0 -28.5 13t5.5 30l144 199q14 20 43 20h221q29 0 43 -20l147 -199q12 -17 6 -30t-28 -13h-152q-25 0 -41 22l-75 117q-3 6 -8.5 6t-8.5 -6l-75 -117q-16 -22 -41 -22h-152zM123 0q-35 0 -35 35v1112q0 35 35 35h219q35 0 35 -35v-1112q0 -35 -35 -35h-219z
" />
    <glyph glyph-name="idieresis.sc" horiz-adv-x="464" 
d="M37 1321q-64 0 -105 39.5t-41 103.5t41.5 105t104.5 41q64 0 103.5 -40.5t39.5 -105.5q0 -64 -39 -103.5t-104 -39.5zM430 1321q-66 0 -105.5 39t-39.5 104t39.5 105.5t105.5 40.5q64 0 103.5 -40.5t39.5 -105.5q0 -64 -39.5 -103.5t-103.5 -39.5zM123 0q-35 0 -35 35
v1112q0 35 35 35h219q35 0 35 -35v-1112q0 -35 -35 -35h-219z" />
    <glyph glyph-name="i.sc.loclTRK" horiz-adv-x="464" 
d="M233 1309q-60 0 -96.5 36.5t-36.5 96.5t36.5 96.5t96.5 36.5q59 0 95.5 -36.5t36.5 -96.5t-36.5 -96.5t-95.5 -36.5zM123 0q-35 0 -35 35v1112q0 35 35 35h219q35 0 35 -35v-1112q0 -35 -35 -35h-219z" />
    <glyph glyph-name="igrave.sc" horiz-adv-x="464" 
d="M340 1368q9 -19 2 -30t-27 -11h-172q-25 0 -41 23l-131 186q-12 17 -6 30t27 13h207q29 0 41 -25zM123 0q-35 0 -35 35v1112q0 35 35 35h219q35 0 35 -35v-1112q0 -35 -35 -35h-219z" />
    <glyph glyph-name="ij.sc" horiz-adv-x="1505" 
d="M123 0q-35 0 -35 35v1112q0 35 35 35h219q35 0 35 -35v-1112q0 -35 -35 -35h-219zM952 -14q-207 0 -333.5 127t-126.5 336v28q0 35 34 35h219q35 0 35 -31v-32q0 -97 47 -156.5t125 -59.5q80 0 129 59.5t49 156.5v698q0 35 35 35h217q35 0 35 -35v-698
q0 -209 -128.5 -336t-336.5 -127z" />
    <glyph glyph-name="imacron.sc" horiz-adv-x="464" 
d="M-33 1335q-35 0 -35 35v125q0 35 35 35h533q35 0 35 -35v-125q0 -35 -35 -35h-533zM123 0q-35 0 -35 35v1112q0 35 35 35h219q35 0 35 -35v-1112q0 -35 -35 -35h-219z" />
    <glyph glyph-name="iogonek.sc" horiz-adv-x="485" 
d="M338 -227q37 9 43 -25l10 -82q3 -33 -24 -41q-39 -13 -82.5 -17t-91 3t-85.5 39t-53 86q-33 134 107 250q6 4 4 9t-10 5h-33q-35 0 -35 35v1112q0 35 35 35h219q35 0 35 -35v-1120q0 -26 -23 -43q-130 -92 -112 -168q18 -60 96 -43z" />
    <glyph glyph-name="j.sc" horiz-adv-x="1040" 
d="M487 -14q-207 0 -333.5 127t-126.5 336v28q0 35 34 35h220q34 0 34 -31v-32q0 -97 47 -156.5t125 -59.5q80 0 129.5 59.5t49.5 156.5v698q0 35 34 35h218q34 0 34 -35v-698q0 -209 -128.5 -336t-336.5 -127z" />
    <glyph glyph-name="k.sc" horiz-adv-x="1105" 
d="M123 0q-35 0 -35 35v1112q0 35 35 35h219q35 0 35 -35v-426q0 -8 4.5 -10t9.5 4l348 446q15 21 43 21h238q22 0 27.5 -12t-7.5 -31l-356 -459q-6 -6 0 -16l379 -623q10 -17 2.5 -29t-27.5 -12h-243q-27 0 -41 23l-265 440q-3 6 -8 5.5t-8 -5.5l-92 -123q-4 -6 -4 -14
v-291q0 -35 -35 -35h-219z" />
    <glyph glyph-name="uni0137.sc" horiz-adv-x="1105" 
d="M123 0q-35 0 -35 35v1112q0 35 35 35h219q35 0 35 -35v-426q0 -8 4.5 -10t9.5 4l348 446q15 21 43 21h238q22 0 27.5 -12t-7.5 -31l-356 -459q-6 -6 0 -16l379 -623q10 -17 2.5 -29t-27.5 -12h-243q-27 0 -41 23l-265 440q-3 6 -8 5.5t-8 -5.5l-92 -123q-4 -6 -4 -14
v-291q0 -35 -35 -35h-219zM360 -360q-20 0 -26.5 11t2.5 30l100 186q12 24 41 24h207q22 0 28.5 -13t-5.5 -30l-132 -186q-16 -22 -43 -22h-172z" />
    <glyph glyph-name="l.sc" horiz-adv-x="1003" 
d="M123 0q-35 0 -35 35v1112q0 35 35 35h219q35 0 35 -35v-887q0 -12 12 -12h541q35 0 35 -35v-178q0 -35 -35 -35h-807z" />
    <glyph glyph-name="lacute.sc" horiz-adv-x="1003" 
d="M131 1305q-20 0 -27 11t2 30l101 186q12 24 41 24h207q22 0 28 -13t-6 -30l-131 -186q-16 -22 -43 -22h-172zM123 0q-35 0 -35 35v1112q0 35 35 35h219q35 0 35 -35v-887q0 -12 12 -12h541q35 0 35 -35v-178q0 -35 -35 -35h-807z" />
    <glyph glyph-name="lcaron.sc" horiz-adv-x="1003" 
d="M106 1282q-24 0 -40 23l-129 194q-11 17 -5 30t27 13h147q25 0 41 -22l76 -117q3 -6 8.5 -6t8.5 6l75 117q16 22 41 22h146q22 0 28 -13t-6 -30l-133 -194q-16 -23 -41 -23h-244zM123 0q-35 0 -35 35v1112q0 35 35 35h219q35 0 35 -35v-887q0 -12 12 -12h541q35 0 35 -35
v-178q0 -35 -35 -35h-807z" />
    <glyph glyph-name="uni013C.sc" horiz-adv-x="1003" 
d="M123 0q-35 0 -35 35v1112q0 35 35 35h219q35 0 35 -35v-887q0 -12 12 -12h541q35 0 35 -35v-178q0 -35 -35 -35h-807zM299 -360q-20 0 -27 11t2 30l101 186q12 24 41 24h207q22 0 28 -13t-6 -30l-131 -186q-16 -22 -43 -22h-172z" />
    <glyph glyph-name="lslash.sc" horiz-adv-x="1083" 
d="M377 260q0 -12 12 -12h541q35 0 35 -35v-178q0 -35 -35 -35h-807q-35 0 -35 35v260q0 17 -14 6l-49 -39q-28 -24 -50 4l-75 88q-21 27 4 49l178 148q6 6 6 14v582q0 35 35 35h219q35 0 35 -35v-330q0 -8 4 -11t10 3l334 278q27 24 49 -4l78 -90q23 -26 -4 -49l-465 -385
q-6 -6 -6 -14v-285z" />
    <glyph glyph-name="m.sc" horiz-adv-x="1253" 
d="M123 0q-35 0 -35 35v1112q0 35 35 35h221q27 0 41 -23l233 -383q3 -6 8.5 -6t8.5 6l233 383q14 23 41 23h219q35 0 35 -35v-1112q0 -35 -35 -35h-219q-35 0 -35 35v727q0 9 -5 10.5t-9 -6.5l-166 -277q-15 -24 -41 -24h-55q-26 0 -41 24l-166 277q-5 8 -9.5 6.5
t-4.5 -10.5v-727q0 -35 -35 -35h-219z" />
    <glyph glyph-name="n.sc" horiz-adv-x="1161" 
d="M123 0q-35 0 -35 35v1112q0 35 35 35h225q30 0 43 -25l381 -670q4 -9 9 -6.5t5 11.5l-2 655q0 35 35 35h219q35 0 35 -35v-1112q0 -35 -35 -35h-225q-31 0 -43 25l-381 680q-5 9 -9.5 6.5t-4.5 -11.5l2 -665q0 -35 -35 -35h-219z" />
    <glyph glyph-name="nacute.sc" horiz-adv-x="1161" 
d="M463 1327q-20 0 -27 11t2 30l101 186q13 25 41 25h206q22 0 28.5 -13t-5.5 -30l-131 -186q-16 -23 -43 -23h-172zM123 0q-35 0 -35 35v1112q0 35 35 35h225q30 0 43 -25l381 -670q4 -9 9 -6.5t5 11.5l-2 655q0 35 35 35h219q35 0 35 -35v-1112q0 -35 -35 -35h-225
q-31 0 -43 25l-381 680q-5 9 -9.5 6.5t-4.5 -11.5l2 -665q0 -35 -35 -35h-219z" />
    <glyph glyph-name="ncaron.sc" horiz-adv-x="1161" 
d="M438 1305q-25 0 -41 22l-129 195q-11 17 -4.5 30t27.5 13h147q25 0 41 -23l76 -117q3 -6 8 -6t8 6l76 117q16 23 41 23h146q22 0 28 -13t-6 -30l-133 -195q-16 -22 -41 -22h-244zM123 0q-35 0 -35 35v1112q0 35 35 35h225q30 0 43 -25l381 -670q4 -9 9 -6.5t5 11.5
l-2 655q0 35 35 35h219q35 0 35 -35v-1112q0 -35 -35 -35h-225q-31 0 -43 25l-381 680q-5 9 -9.5 6.5t-4.5 -11.5l2 -665q0 -35 -35 -35h-219z" />
    <glyph glyph-name="uni0146.sc" horiz-adv-x="1161" 
d="M123 0q-35 0 -35 35v1112q0 35 35 35h225q30 0 43 -25l381 -670q4 -9 9 -6.5t5 11.5l-2 655q0 35 35 35h219q35 0 35 -35v-1112q0 -35 -35 -35h-225q-31 0 -43 25l-381 680q-5 9 -9.5 6.5t-4.5 -11.5l2 -665q0 -35 -35 -35h-219zM393 -360q-20 0 -26.5 11t2.5 30l100 186
q12 24 41 24h207q22 0 28 -13t-6 -30l-131 -186q-16 -22 -43 -22h-172z" />
    <glyph glyph-name="eng.sc" horiz-adv-x="1161" 
d="M1038 1182q35 0 35 -35v-1124v-23h-2q-4 -100 -26.5 -162.5t-76 -102.5t-137 -54t-215.5 -11q-34 0 -34 35v172q0 33 36 33q82 -3 117 16.5t43 71.5q2 5 -2 16l-387 691q-5 9 -9.5 6.5t-4.5 -11.5l2 -665q0 -35 -35 -35h-219q-35 0 -35 35v1112q0 35 35 35h225
q30 0 43 -25l377 -661q4 -9 9 -7t5 11v366v13q2 6 2 16v252q0 35 35 35h219z" />
    <glyph glyph-name="ntilde.sc" horiz-adv-x="1161" 
d="M702 1327q-57 0 -135 51q-49 33 -80 33q-47 0 -75 -35q-23 -29 -47 -10l-72 49q-27 20 -12 47q28 67 77.5 101t108.5 34q56 0 133 -47q67 -37 98 -37q44 0 70 37q22 28 47 11l74 -50q28 -21 2 -63q-36 -60 -87 -90.5t-102 -30.5zM123 0q-35 0 -35 35v1112q0 35 35 35h225
q30 0 43 -25l381 -670q4 -9 9 -6.5t5 11.5l-2 655q0 35 35 35h219q35 0 35 -35v-1112q0 -35 -35 -35h-225q-31 0 -43 25l-381 680q-5 9 -9.5 6.5t-4.5 -11.5l2 -665q0 -35 -35 -35h-219z" />
    <glyph glyph-name="o.sc" 
d="M559 -20q-222 0 -356.5 134.5t-134.5 358.5v236q0 221 134.5 354t356.5 133t358 -133t136 -354v-236q0 -223 -136 -358t-358 -135zM559 227q92 0 148.5 65.5t56.5 172.5v248q0 107 -56 171t-149 64q-92 0 -147.5 -64t-55.5 -171v-248q0 -107 55.5 -172.5t147.5 -65.5z
" />
    <glyph glyph-name="oacute.sc" 
d="M459 1319q-20 0 -27 11t2 30l101 186q13 25 40 25h207q22 0 28.5 -13t-5.5 -30l-131 -187q-16 -22 -43 -22h-172zM559 -20q-222 0 -356.5 134.5t-134.5 358.5v236q0 221 134.5 354t356.5 133t358 -133t136 -354v-236q0 -223 -136 -358t-358 -135zM559 227
q92 0 148.5 65.5t56.5 172.5v248q0 107 -56 171t-149 64q-92 0 -147.5 -64t-55.5 -171v-248q0 -107 55.5 -172.5t147.5 -65.5z" />
    <glyph glyph-name="ocircumflex.sc" 
d="M283 1313q-22 0 -28.5 13t5.5 30l143 198q15 21 43 21h222q28 0 43 -21l147 -198q12 -17 6 -30t-28 -13h-152q-25 0 -41 22l-76 117q-3 6 -8 6t-8 -6l-76 -117q-16 -22 -41 -22h-151zM559 -20q-222 0 -356.5 134.5t-134.5 358.5v236q0 221 134.5 354t356.5 133t358 -133
t136 -354v-236q0 -223 -136 -358t-358 -135zM559 227q92 0 148.5 65.5t56.5 172.5v248q0 107 -56 171t-149 64q-92 0 -147.5 -64t-55.5 -171v-248q0 -107 55.5 -172.5t147.5 -65.5z" />
    <glyph glyph-name="odieresis.sc" 
d="M362 1313q-64 0 -104.5 39.5t-40.5 103.5t41 105t104 41q64 0 104 -40.5t40 -105.5q0 -64 -39.5 -103.5t-104.5 -39.5zM756 1313q-66 0 -106 39t-40 104t40 105.5t106 40.5q64 0 103.5 -40.5t39.5 -105.5q0 -64 -39.5 -103.5t-103.5 -39.5zM559 -20q-222 0 -356.5 134.5
t-134.5 358.5v236q0 221 134.5 354t356.5 133t358 -133t136 -354v-236q0 -223 -136 -358t-358 -135zM559 227q92 0 148.5 65.5t56.5 172.5v248q0 107 -56 171t-149 64q-92 0 -147.5 -64t-55.5 -171v-248q0 -107 55.5 -172.5t147.5 -65.5z" />
    <glyph glyph-name="ograve.sc" 
d="M666 1360q9 -19 2 -30t-27 -11h-172q-25 0 -41 22l-131 187q-12 17 -6.5 30t26.5 13h207q28 0 41 -25zM559 -20q-222 0 -356.5 134.5t-134.5 358.5v236q0 221 134.5 354t356.5 133t358 -133t136 -354v-236q0 -223 -136 -358t-358 -135zM559 227q92 0 148.5 65.5
t56.5 172.5v248q0 107 -56 171t-149 64q-92 0 -147.5 -64t-55.5 -171v-248q0 -107 55.5 -172.5t147.5 -65.5z" />
    <glyph glyph-name="ohungarumlaut.sc" 
d="M301 1315q-20 0 -27.5 11t0.5 30l86 184q14 27 41 27h189q20 0 26.5 -12t-2.5 -29l-98 -187q-12 -24 -41 -24h-174zM668 1315q-20 0 -27 12t2 29l98 186q13 25 41 25h174q20 0 27 -11t-2 -30l-100 -187q-12 -24 -41 -24h-172zM559 -20q-222 0 -356.5 134.5t-134.5 358.5
v236q0 221 134.5 354t356.5 133t358 -133t136 -354v-236q0 -223 -136 -358t-358 -135zM559 227q92 0 148.5 65.5t56.5 172.5v248q0 107 -56 171t-149 64q-92 0 -147.5 -64t-55.5 -171v-248q0 -107 55.5 -172.5t147.5 -65.5z" />
    <glyph glyph-name="omacron.sc" 
d="M293 1327q-35 0 -35 35v125q0 35 35 35h532q35 0 35 -35v-125q0 -35 -35 -35h-532zM559 -20q-222 0 -356.5 134.5t-134.5 358.5v236q0 221 134.5 354t356.5 133t358 -133t136 -354v-236q0 -223 -136 -358t-358 -135zM559 227q92 0 148.5 65.5t56.5 172.5v248
q0 107 -56 171t-149 64q-92 0 -147.5 -64t-55.5 -171v-248q0 -107 55.5 -172.5t147.5 -65.5z" />
    <glyph glyph-name="oslash.sc" 
d="M922 1073q-4 -11 4 -18q127 -133 127 -346v-236q0 -223 -136 -358t-358 -135q-96 0 -166 22q-13 4 -16 -6l-70 -141q-13 -25 -41 -25h-94q-20 0 -28 12t1 29l99 192q4 12 -4 17q-172 139 -172 393v236q0 221 134.5 354t356.5 133q123 0 221 -43q12 -4 17 6l118 238
q12 24 41 24h95q20 0 27.5 -12t-1.5 -29zM356 465q0 -54 17 -107q3 -8 8 -8t8 8l277 547q5 11 -4 17q-47 26 -103 26q-92 0 -147.5 -64t-55.5 -171v-248zM764 465v248v12q0 9 -6 11t-10 -7l-242 -481q-3 -4 -1.5 -10t7.5 -7q32 -4 47 -4q92 0 148.5 65.5t56.5 172.5z" />
    <glyph glyph-name="otilde.sc" 
d="M698 1319q-57 0 -135 51q-49 33 -80 33q-47 0 -75 -35q-23 -29 -48 -10l-71 49q-28 21 -13 47q28 67 78 101t109 34q56 0 133 -47q67 -37 98 -37q44 0 70 37q22 28 47 10l74 -49q28 -21 2 -63q-36 -60 -87 -90.5t-102 -30.5zM559 -20q-222 0 -356.5 134.5t-134.5 358.5
v236q0 221 134.5 354t356.5 133t358 -133t136 -354v-236q0 -223 -136 -358t-358 -135zM559 227q92 0 148.5 65.5t56.5 172.5v248q0 107 -56 171t-149 64q-92 0 -147.5 -64t-55.5 -171v-248q0 -107 55.5 -172.5t147.5 -65.5z" />
    <glyph glyph-name="oe.sc" horiz-adv-x="1636" 
d="M1583 969q0 -35 -35 -35h-522q-12 0 -12 -12v-187q0 -12 12 -12h324q34 0 34 -35v-178q0 -35 -34 -35h-324q-12 0 -12 -12v-203q0 -12 12 -12h522q35 0 35 -35v-178q0 -35 -35 -35h-788q-35 0 -35 31v10q0 6 -4 9t-10 -1q-113 -69 -250 -69q-78 0 -149.5 32.5
t-125.5 89.5t-86 141.5t-32 182.5v330q0 96 32 179.5t86 140t125.5 88.5t149.5 32q138 0 250 -68q14 -10 14 5v14q0 35 35 35h788q35 0 35 -35v-178zM537 227q85 0 136.5 51.5t51.5 137.5v344q0 87 -51.5 137.5t-136.5 50.5q-80 0 -130.5 -51t-50.5 -137v-344q0 -85 51 -137
t130 -52z" />
    <glyph glyph-name="p.sc" horiz-adv-x="1048" 
d="M606 1184q181 0 292.5 -105.5t111.5 -275.5q0 -167 -114 -269t-302 -102h-213q-12 0 -12 -12v-385q0 -35 -35 -35h-219q-35 0 -35 35v1114q0 35 35 35h491zM578 662q65 0 105 37t40 98q0 63 -40 101t-105 38h-197q-12 0 -12 -12v-250q0 -12 12 -12h197z" />
    <glyph glyph-name="thorn.sc" horiz-adv-x="1024" 
d="M586 961q181 0 291 -102.5t110 -270.5q0 -164 -114.5 -264.5t-301.5 -100.5h-190q-12 0 -12 -12v-176q0 -35 -35 -35h-219q-35 0 -35 35v1112q0 35 35 35h219q35 0 35 -35v-174q0 -12 12 -12h205zM569 455q58 0 93.5 35t35.5 92q0 60 -35 95.5t-94 35.5h-188
q-12 0 -12 -13v-233q0 -12 12 -12h188z" />
    <glyph glyph-name="q.sc" horiz-adv-x="1052" 
d="M526 1196q210 0 336.5 -130.5t126.5 -346.5v-279q0 -163 -81.5 -277t-223.5 -157q-10 -3 -10 -12v-111q0 -35 -35 -35h-219q-35 0 -35 35v109q0 9 -10 12q-145 43 -228.5 157.5t-83.5 278.5v279q0 216 127.5 346.5t335.5 130.5zM700 449v286q0 96 -48 154.5t-126 58.5
t-126 -58.5t-48 -154.5v-286q0 -98 48 -157t126 -59t126 59t48 157z" />
    <glyph glyph-name="r.sc" horiz-adv-x="1054" 
d="M739 0q-27 0 -41 27l-196 411q-3 8 -15 8h-98q-12 0 -12 -12v-399q0 -35 -35 -35h-219q-35 0 -35 35v1114q0 35 35 35h489q175 0 282 -102t107 -269q0 -119 -57.5 -206.5t-159.5 -129.5q-14 -4 -6 -16l219 -420q9 -17 2.5 -29t-26.5 -12h-234zM389 936q-12 0 -12 -12
v-244q0 -12 12 -12h184q63 0 102.5 36.5t39.5 96.5t-39.5 97.5t-102.5 37.5h-184z" />
    </font>
</defs>
</svg>
