<?xml version="1.0" standalone="no"?>
<!DOCTYPE svg PUBLIC "-//W3C//DTD SVG 1.1//EN" "http://www.w3.org/Graphics/SVG/1.1/DTD/svg11.dtd" >
<svg xmlns="http://www.w3.org/2000/svg" xmlns:xlink="http://www.w3.org/1999/xlink" version="1.1">
<metadata>
Created by FontForge 20170731 at Mon Jan 18 07:23:55 2021
 By Aleksey,,,
Copyright 2017 The Barlow Project Authors (https://github.com/jpt/barlow)
</metadata>
<defs>
<font id="Barlow-Light" horiz-adv-x="0" >
  <font-face 
    font-family="Barlow Light"
    font-weight="300"
    font-stretch="normal"
    units-per-em="2048"
    panose-1="0 0 4 0 0 0 0 0 0 0"
    ascent="1638"
    descent="-410"
    x-height="1032"
    cap-height="1434"
    bbox="-1190 -428 2257 2007"
    underline-thickness="102"
    underline-position="-307"
    unicode-range="U+000D-25CA"
  />
<missing-glyph horiz-adv-x="827" 
d="M0 8q0 -8 8 -8h811q8 0 8 8v1417q0 9 -8 9h-811q-8 0 -8 -9v-1417zM383 467q-11 0 -18 7.5t-7 17.5v86q0 38 13.5 69.5t35.5 54.5t48.5 44t53 43t48.5 46.5t35.5 59t13.5 76.5q0 79 -50 127.5t-130 48.5q-83 0 -133.5 -49t-50.5 -129v-39q0 -10 -7 -17.5t-18 -7.5l-29 2
q-10 0 -17 7t-7 18v37q0 112 72.5 181t189.5 69q118 0 188 -67.5t70 -182.5q0 -57 -18 -104t-45 -75.5t-59 -56t-59 -48.5t-45 -50t-18 -62v-81q0 -11 -7 -18t-17 -7h-33zM406 186q-33 0 -55.5 22.5t-22.5 53.5t23 52.5t55 21.5q31 0 53 -21.5t22 -52.5t-22 -53.5t-53 -22.5
z" />
    <glyph glyph-name="I_J.liga" unicode="IJ" horiz-adv-x="1710" 
d="M233 0q-10 0 -17 7t-7 18v1384q0 11 7 18t17 7h60q10 0 17 -7t7 -18v-1384q0 -11 -7 -18t-17 -7h-60zM1047 -16q-204 0 -328.5 114t-124.5 303v99q0 10 7 17t17 7h60q10 0 17 -7t7 -17v-99q0 -145 95 -233t250 -88q157 0 251.5 88t94.5 233v1008q0 11 7 18t17 7h60
q10 0 17 -7t7 -18v-1008q0 -189 -125 -303t-329 -114z" />
    <glyph glyph-name="f_f_i.liga" unicode="ffi" horiz-adv-x="1890" 
d="M340 1106v-66q0 -8 8 -8h254q11 0 18 -7t7 -17v-43q0 -11 -7.5 -18t-17.5 -7h-254q-8 0 -8 -8v-907q0 -11 -7 -18t-18 -7h-57q-10 0 -17.5 7t-7.5 18v907q0 8 -8 8h-127q-10 0 -17 7t-7 18v43q0 10 7 17t17 7h127q8 0 8 8v72q0 166 68.5 244.5t243.5 77.5h47q10 0 17 -7
t7 -18v-33q0 -10 -7 -17t-17 -7h-47q-120 -1 -162.5 -60.5t-42.5 -185.5zM920 1112q0 166 68.5 244.5t242.5 77.5h49q10 0 17.5 -7t7.5 -18v-33q0 -10 -7 -17t-18 -7h-49q-119 -1 -162 -61t-43 -185v-66q0 -8 8 -8h242q10 0 17 -7t7 -17v-43q0 -11 -7 -18t-17 -7h-242
q-8 0 -8 -8v-907q0 -11 -7 -18t-18 -7h-57q-10 0 -17 7t-7 18v907q0 8 -9 8h-163q-10 0 -17.5 7t-7.5 18v43q0 10 7 17t18 7h163q9 0 9 8v72zM1645 1417q41 0 66.5 -25.5t25.5 -64.5t-25.5 -64.5t-66.5 -25.5t-68 26t-27 64t27 64t68 26zM1614 0q-10 0 -17.5 7t-7.5 18v983
q0 10 7 17t18 7h59q11 0 18 -7t7 -17v-983q0 -11 -7 -18t-18 -7h-59z" />
    <glyph glyph-name="f_f_l.liga" unicode="ffl" horiz-adv-x="1861" 
d="M340 1106v-66q0 -8 8 -8h281q11 0 17.5 -7t6.5 -17v-43q0 -11 -7 -18t-17 -7h-281q-8 0 -8 -8v-907q0 -11 -7 -18t-18 -7h-57q-10 0 -17.5 7t-7.5 18v907q0 8 -8 8h-127q-10 0 -17 7t-7 18v43q0 10 7 17t17 7h127q8 0 8 8v72q0 166 68.5 244.5t243.5 77.5h47q10 0 17 -7
t7 -18v-33q0 -10 -7 -17t-17 -7h-47q-120 -1 -162.5 -60.5t-42.5 -185.5zM920 1112q0 166 68.5 244.5t242.5 77.5h49q10 0 17.5 -7t7.5 -18v-33q0 -10 -7 -17t-18 -7h-49q-119 -1 -162 -61t-43 -185v-66q0 -8 8 -8h242q10 0 17 -7t7 -17v-43q0 -11 -7 -18t-17 -7h-242
q-8 0 -8 -8v-907q0 -11 -7 -18t-18 -7h-57q-10 0 -17 7t-7 18v907q0 8 -9 8h-163q-10 0 -17.5 7t-7.5 18v43q0 10 7 17t18 7h163q9 0 9 8v72zM1573 1409q0 11 7 18t17 7h60q10 0 17 -7t7 -18v-1384q0 -11 -7 -18t-17 -7h-60q-10 0 -17 7t-7 18v1384z" />
    <glyph glyph-name="f_i.liga" unicode="fi" horiz-adv-x="1210" 
d="M238 1098q0 90 14 150t49 103.5t95 63t151 19.5h49q10 0 17.5 -7t7.5 -18v-47q0 -10 -7.5 -17.5t-17.5 -7.5h-41q-122 0 -165.5 -57t-43.5 -186v-54q0 -8 8 -8h236q10 0 17 -7t7 -17v-52q0 -10 -7 -17t-17 -7h-236q-8 0 -8 -8v-899q0 -11 -7 -18t-17 -7h-60q-10 0 -17 7
t-7 18v899q0 8 -9 8h-131q-10 0 -17 7t-7 17v52q0 10 7 17t17 7h131q9 0 9 8v58zM963 1417q41 0 67.5 -25t26.5 -63q0 -39 -26.5 -64.5t-67.5 -25.5q-40 0 -67.5 26t-27.5 64t27.5 63t67.5 25zM934 0q-10 0 -17.5 7t-7.5 18v983q0 10 7 17t18 7h59q11 0 18 -7t7 -17v-983
q0 -11 -7 -18t-18 -7h-59z" />
    <glyph glyph-name="f_l.liga" unicode="fl" horiz-adv-x="1179" 
d="M238 1098q0 90 14 150t49 103.5t95 63t151 19.5h49q10 0 17.5 -7t7.5 -18v-47q0 -10 -7.5 -17.5t-17.5 -7.5h-41q-122 0 -165.5 -57t-43.5 -186v-54q0 -8 8 -8h236q10 0 17 -7t7 -17v-52q0 -10 -7 -17t-17 -7h-236q-8 0 -8 -8v-899q0 -11 -7 -18t-17 -7h-60q-10 0 -17 7
t-7 18v899q0 8 -9 8h-131q-10 0 -17 7t-7 17v52q0 10 7 17t17 7h131q9 0 9 8v58zM893 1409q0 11 7.5 18t17.5 7h59q10 0 17 -7t7 -18v-1384q0 -11 -7 -18t-17 -7h-59q-10 0 -17.5 7t-7.5 18v1384z" />
    <glyph glyph-name="g_j.liga" unicode="gj" horiz-adv-x="1558" 
d="M1327 1415q42 0 69 -24t27 -64t-26.5 -64t-69.5 -24q-42 0 -68 24.5t-26 63.5q0 40 27 64t67 24zM807 909q3 -4 6.5 -2.5t3.5 6.5v95q0 10 7 17t18 7h59q11 0 18 -7t7 -17v-985q0 -230 -138.5 -335t-390.5 -96q-24 3 -24 27l2 51q0 26 24 23q218 -6 318 75t100 257v102
q0 6 -3.5 7.5t-6.5 -3.5q-92 -141 -281 -141q-134 0 -233.5 72.5t-132.5 199.5q-23 88 -23 252q0 176 25 264q33 121 129 196t231 75q189 0 285 -140zM1272 -113v1121q0 10 7 17t17 7h60q10 0 17 -7t7 -17v-1121q0 -154 -82 -233t-239 -82q-25 0 -25 25v45q0 24 25 24
q99 6 156 63t57 158zM807 301q10 49 10 215q0 165 -10 219q-16 93 -87 155t-177 62q-107 0 -180 -61t-99 -156q-18 -61 -18 -217q0 -152 18 -217q23 -94 97.5 -155.5t181.5 -61.5q110 0 179 62t85 155z" />
    <glyph glyph-name="i_j.liga" unicode="ij" horiz-adv-x="954" 
d="M248 1239q-40 0 -67 26t-27 64t27 63t67 25q41 0 67.5 -25t26.5 -63q0 -39 -26.5 -64.5t-67.5 -25.5zM723 1237q-41 0 -66.5 25t-25.5 65t26.5 65t65.5 25q42 0 69 -24.5t27 -65.5q0 -40 -26 -65t-70 -25zM219 0q-10 0 -17 7t-7 18v983q0 10 6.5 17t17.5 7h60
q11 0 17.5 -7t6.5 -17v-983q0 -11 -7 -18t-17 -7h-60zM453 -428q-25 0 -25 25v45q0 24 25 24q106 4 161.5 61t55.5 160v1121q0 10 7 17t17 7h60q10 0 17 -7t7 -17v-1121q0 -156 -80 -234t-245 -81z" />
    <glyph glyph-name="hyphen_hyphen.liga" unicode="&#x2d;&#x2d;" horiz-adv-x="1417" 
d="M111 580q-11 0 -18 7t-7 17v47q0 11 7 18t18 7h1198q10 0 17 -7t7 -18v-47q0 -10 -6.5 -17t-17.5 -7h-1198z" />
    <glyph glyph-name=".notdef" horiz-adv-x="827" 
d="M0 8q0 -8 8 -8h811q8 0 8 8v1417q0 9 -8 9h-811q-8 0 -8 -9v-1417zM383 467q-11 0 -18 7.5t-7 17.5v86q0 38 13.5 69.5t35.5 54.5t48.5 44t53 43t48.5 46.5t35.5 59t13.5 76.5q0 79 -50 127.5t-130 48.5q-83 0 -133.5 -49t-50.5 -129v-39q0 -10 -7 -17.5t-18 -7.5l-29 2
q-10 0 -17 7t-7 18v37q0 112 72.5 181t189.5 69q118 0 188 -67.5t70 -182.5q0 -57 -18 -104t-45 -75.5t-59 -56t-59 -48.5t-45 -50t-18 -62v-81q0 -11 -7 -18t-17 -7h-33zM406 186q-33 0 -55.5 22.5t-22.5 53.5t23 52.5t55 21.5q31 0 53 -21.5t22 -52.5t-22 -53.5t-53 -22.5
z" />
    <glyph glyph-name=".null" 
 />
    <glyph glyph-name="nonmarkingreturn" horiz-adv-x="682" 
 />
    <glyph glyph-name="CR" unicode="&#xd;" horiz-adv-x="409" 
 />
    <glyph glyph-name="space" unicode=" " horiz-adv-x="409" 
 />
    <glyph glyph-name="exclam" unicode="!" horiz-adv-x="647" 
d="M301 461q-11 0 -18 7t-7 17l-6 924q0 11 7 18t18 7h59q10 0 17.5 -7t7.5 -18l-8 -924q0 -10 -7 -17t-18 -7h-45zM317 8q-46 0 -78 31.5t-32 77.5q0 44 33.5 75t76.5 31q45 0 79 -31t34 -75q0 -45 -33.5 -77t-79.5 -32z" />
    <glyph glyph-name="quotedbl" unicode="&#x22;" horiz-adv-x="487" 
d="M104 1010q-10 0 -17 7t-7 17l-12 361q0 11 7 17.5t17 6.5h64q10 0 17 -6.5t7 -17.5l-12 -361q0 -10 -7 -17t-18 -7h-39zM346 1010q-10 0 -17 7t-7 17l-13 361q0 10 7 17t18 7h63q11 0 18 -7t7 -17l-12 -361q0 -10 -7 -17t-18 -7h-39z" />
    <glyph glyph-name="numbersign" unicode="#" horiz-adv-x="1335" 
d="M1174 918q0 -10 -7 -17.5t-18 -7.5h-152q-10 0 -10 -8l-55 -359q0 -8 6 -8h137q11 0 18 -7t7 -17l-2 -48q0 -10 -7 -17t-18 -7h-149q-11 0 -11 -8l-55 -363q-3 -22 -27 -22l-59 2q-25 0 -22 26l55 357q0 8 -6 8h-357q-10 0 -10 -8l-55 -363q-3 -22 -27 -22l-59 2
q-26 0 -23 26l56 357q0 8 -7 8h-131q-10 0 -17 7t-7 17l2 48q0 10 7 17t17 7h144q10 0 10 8l55 359q0 8 -6 8h-131q-10 0 -17 7t-7 18l2 47q0 11 7 17.5t17 6.5h144q10 0 10 8l55 365q3 22 27 22l59 -2q12 0 18.5 -8t4.5 -20l-56 -357q0 -8 6 -8h357q10 0 10 8l55 365
q3 22 27 22l59 -2q12 0 18.5 -8t4.5 -20l-55 -357q0 -8 6 -8h137q11 0 18 -7t7 -17v-47zM813 518q10 0 10 8l56 359q0 8 -7 8h-356q-10 0 -10 -8l-55 -359q0 -8 6 -8h356z" />
    <glyph glyph-name="dollar" unicode="$" horiz-adv-x="1114" 
d="M993 352q0 -160 -103 -259.5t-294 -108.5q-8 0 -8 -9v-122q0 -11 -7 -18t-18 -7h-33q-10 0 -17 7t-7 18l2 124q0 9 -8 9q-174 15 -272.5 110t-98.5 246v78q0 10 7 17t18 7h55q11 0 17.5 -7t6.5 -17v-58q0 -127 90 -204.5t248 -77.5q152 0 233 71.5t81 194.5q0 47 -17 87
t-47 72.5t-80 65.5t-106 64t-134 71q-17 8 -26 13q-73 37 -116.5 61.5t-89 59t-69 69t-38.5 82.5t-15 107q0 155 89 245.5t253 104.5q9 0 9 8l-2 135q0 11 7 18t17 7h33q11 0 18 -7t7 -18l-3 -133q0 -8 9 -8q190 -7 294.5 -105.5t104.5 -259.5v-55q0 -10 -7 -17t-18 -7h-59
q-11 0 -18 7t-7 17v37q0 130 -85.5 208.5t-243.5 78.5q-140 0 -215.5 -64.5t-75.5 -185.5q0 -59 17 -101t71.5 -80.5t91 -57.5t138.5 -64q30 -14 46 -21q197 -91 286 -188t89 -240z" />
    <glyph glyph-name="percent" unicode="%" horiz-adv-x="1748" 
d="M496 887q-119 0 -203 83t-84 201q0 117 84 200t203 83q118 0 201 -83t83 -200q0 -119 -83 -201.5t-201 -82.5zM463 0q-13 0 -18 8.5t1 20.5l773 1388q10 17 30 17h33q13 0 17.5 -8.5t-1.5 -20.5l-770 -1389q-10 -16 -30 -16h-35zM496 956q89 0 150 62.5t61 152.5
q0 88 -61.5 149.5t-149.5 61.5q-89 0 -151 -61.5t-62 -149.5q0 -91 62 -153t151 -62zM1257 -20q-120 0 -203 82.5t-83 201.5t83 201t203 82q118 0 201.5 -83t83.5 -200q0 -118 -83 -201t-202 -83zM1257 51q88 0 149.5 62.5t61.5 150.5q0 89 -61.5 151t-149.5 62
q-89 0 -151 -62t-62 -151t62 -151t151 -62z" />
    <glyph glyph-name="ampersand" unicode="&#x26;" horiz-adv-x="1333" 
d="M1188 29q9 -11 5 -20t-19 -9h-68q-20 0 -31 14l-129 156q-4 8 -12 0q-100 -100 -196.5 -143t-219.5 -43q-178 0 -284.5 83.5t-106.5 239.5q0 61 18 117.5t45 99.5t71.5 88.5t82.5 76t94 71.5q7 3 0 10q-122 151 -162 225.5t-40 147.5q0 138 89.5 222.5t235.5 84.5
q150 0 243 -82t93 -215q0 -66 -23 -123.5t-70 -109t-91 -87.5t-115 -85q-7 -4 0 -11q86 -108 225 -268q72 -85 111 -137q6 -6 12 0q57 70 135 176q16 19 35 6l41 -25q21 -12 8 -32q-78 -113 -155 -203q-3 -6 8 -23q37 -45 170 -202zM565 1348q-100 0 -160.5 -55t-60.5 -150
q0 -55 34 -116.5t144 -199.5q6 -6 13 -2q123 86 188 161t65 167q0 88 -62 141.5t-161 53.5zM532 80q96 3 174.5 42.5t161.5 123.5q6 6 0 12q-40 48 -72.5 87.5t-44 54t-22.5 27.5t-24 26l-193 227q-3 6 -10 2q-49 -36 -82 -62.5t-70.5 -64t-60 -72t-37.5 -78.5t-16 -90
q-1 -115 78.5 -177.5t217.5 -57.5z" />
    <glyph glyph-name="quotesingle" unicode="'" horiz-adv-x="249" 
d="M104 1020q-10 0 -17 7t-7 17l-12 361q0 11 7 18t17 7h68q10 0 17 -7t7 -18l-12 -361q0 -10 -7 -17t-18 -7h-43z" />
    <glyph glyph-name="parenleft" unicode="(" horiz-adv-x="487" 
d="M225 -219q-20 0 -28 16q-93 152 -151 384t-58 481q0 255 59.5 493t155.5 393q9 17 28 17h56q14 0 18.5 -8.5t-2.5 -20.5q-85 -158 -137.5 -390.5t-52.5 -479.5q0 -244 52.5 -472.5t137.5 -383.5q6 -12 1.5 -20.5t-17.5 -8.5h-62z" />
    <glyph glyph-name="parenright" unicode=")" horiz-adv-x="487" 
d="M291 -203q-8 -16 -29 -16h-61q-13 0 -18 8.5t1 20.5q85 155 138 383.5t53 472.5q0 247 -53 479.5t-138 390.5q-7 12 -2 20.5t19 8.5h55q20 0 29 -17q96 -155 155.5 -393t59.5 -493q0 -249 -58 -481t-151 -384z" />
    <glyph glyph-name="asterisk" unicode="*" horiz-adv-x="813" 
d="M393 805q-11 0 -17.5 6.5t-6.5 17.5v263q0 4 -4 6t-7 0l-235 -135q-21 -14 -35 10l-12 22q-10 20 10 33l236 133q3 1 3 6t-3 7l-236 133q-18 12 -8 32l10 23q4 10 14.5 13t20.5 -3l235 -135q3 -2 7 0t4 6v262q0 11 7 18t17 7h27q10 0 17 -7t7 -18v-262q0 -4 4 -6t7 0
l235 135q18 12 33 -10l12 -23q12 -18 -8 -32l-235 -133q-3 -2 -3 -7t3 -6l235 -133q21 -14 8 -33l-12 -22q-14 -24 -35 -10l-233 135q-3 2 -7 0t-4 -6v-263q0 -11 -7 -17.5t-17 -6.5h-27z" />
    <glyph glyph-name="plus" unicode="+" horiz-adv-x="1032" 
d="M922 694q10 0 17 -7t7 -17v-45q0 -11 -7 -18t-17 -7h-351q-8 0 -8 -8v-342q0 -11 -7 -18t-17 -7h-45q-10 0 -17.5 7.5t-7.5 17.5v342q0 8 -8 8h-350q-11 0 -18 7t-7 18v45q0 10 7 17t18 7h350q8 0 8 8v361q0 10 7 17t18 7h45q11 0 17.5 -6.5t6.5 -17.5v-361q0 -8 8 -8
h351z" />
    <glyph glyph-name="comma" unicode="," horiz-adv-x="540" 
d="M176 -152q-28 0 -22 27l94 418q3 22 26 22h50q28 0 22 -26l-108 -420q-6 -21 -29 -21h-33z" />
    <glyph glyph-name="hyphen" unicode="-" horiz-adv-x="800" 
d="M111 596q-11 0 -18 7t-7 18v47q0 10 7 17t18 7h579q11 0 18 -7t7 -17v-47q0 -11 -7.5 -18t-17.5 -7h-579z" />
    <glyph glyph-name="period" unicode="." horiz-adv-x="563" 
d="M276 8q-47 0 -78.5 32t-31.5 77q0 44 33.5 75t76.5 31q45 0 79 -31t34 -75t-33.5 -76.5t-79.5 -32.5z" />
    <glyph glyph-name="slash" unicode="/" horiz-adv-x="686" 
d="M94 0q-12 0 -17.5 8.5t-2.5 20.5l432 1384q7 21 26 21h60q12 0 17.5 -8.5t2.5 -20.5l-432 -1385q-7 -20 -26 -20h-60z" />
    <glyph glyph-name="zero" unicode="0" horiz-adv-x="1153" 
d="M573 -20q-189 0 -302 109t-113 292v672q0 182 113 290.5t302 108.5q191 0 306.5 -109t115.5 -290v-672q0 -183 -115.5 -292t-306.5 -109zM573 78q142 0 228 80.5t86 214.5v686q0 134 -86 215.5t-228 81.5q-138 0 -222.5 -81.5t-84.5 -215.5v-686q0 -133 84.5 -214
t222.5 -81z" />
    <glyph glyph-name="one" unicode="1" horiz-adv-x="708" 
d="M375 1425q15 9 31 9h67q11 0 18 -7t7 -18v-1384q0 -11 -7 -18t-18 -7h-59q-10 0 -17.5 7t-7.5 18v1282q0 4 -3.5 6t-6.5 0l-227 -105q-12 -6 -20.5 -0.5t-8.5 19.5v39q0 20 16 30z" />
    <glyph glyph-name="two" unicode="2" horiz-adv-x="1085" 
d="M154 0q-10 0 -17.5 7t-7.5 18v51q0 18 10 30q197 246 467 592q193 251 193 396q0 117 -78.5 188.5t-206.5 71.5q-126 0 -202.5 -71.5t-75.5 -188.5v-62q0 -10 -7 -17t-18 -7h-59q-11 0 -18 7t-7 17v74q1 154 109 249t278 95q178 0 286.5 -98.5t108.5 -255.5
q0 -177 -196 -432q-279 -360 -439 -558q-7 -10 5 -10h655q10 0 17 -7t7 -17v-47q0 -11 -7 -18t-17 -7h-780z" />
    <glyph glyph-name="three" unicode="3" horiz-adv-x="1042" 
d="M856 676q41 -103 41 -244q0 -107 -29 -196q-38 -123 -131.5 -187.5t-232.5 -64.5q-142 0 -240.5 74t-132.5 200q-16 53 -20 145q0 25 24 25h62q24 0 24 -25q3 -58 10 -108q22 -98 94.5 -156.5t178.5 -58.5q199 0 258 178q26 80 26 176q0 131 -36 213q-66 160 -250 160
q-28 0 -58 -10q-21 -6 -34 10l-27 33q-14 17 0 34l365 453q3 3 1.5 6.5t-6.5 3.5h-600q-10 0 -17 7t-7 18v47q0 11 7 18t17 7h723q10 0 17.5 -7t7.5 -18v-55q0 -18 -10 -31l-342 -432q-3 -3 -1.5 -6.5t7.5 -3.5q231 -9 311 -205z" />
    <glyph glyph-name="four" unicode="4" horiz-adv-x="1099" 
d="M944 500q10 0 17.5 -7t7.5 -18v-49q0 -10 -7.5 -17.5t-17.5 -7.5h-82q-8 0 -8 -8v-368q0 -11 -7 -18t-18 -7h-59q-10 0 -17.5 7t-7.5 18v368q0 8 -8 8h-604q-10 0 -17 7t-7 18v45q0 16 6 31l430 913q9 19 28 19h60q14 0 19 -8t-1 -21l-420 -895q-2 -3 0.5 -6.5t6.5 -3.5
h499q8 0 8 8v344q0 10 7.5 17.5t17.5 7.5h59q11 0 18 -7.5t7 -17.5v-344q0 -8 8 -8h82z" />
    <glyph glyph-name="five" unicode="5" horiz-adv-x="1040" 
d="M913 621q15 -90 15 -183q0 -98 -15 -166q-32 -133 -133 -210.5t-245 -77.5q-140 0 -239.5 74t-133.5 196q-12 41 -15 80q-3 24 23 24h61q22 0 25 -20v-8q4 -26 8 -35q22 -97 94 -155t177 -58q108 0 181 61.5t93 167.5q10 41 10 125q0 73 -10 144q-13 103 -87.5 158
t-186.5 55q-97 0 -170.5 -41.5t-100.5 -116.5q-6 -21 -26 -21h-68q-10 0 -17.5 7t-7.5 18v770q0 11 7.5 18t17.5 7h674q10 0 17 -7t7 -18v-47q0 -11 -7 -18t-17 -7h-582q-8 0 -8 -8l-2 -549q0 -12 10 -2q47 52 122.5 81.5t162.5 29.5q142 0 241 -69.5t125 -198.5z" />
    <glyph glyph-name="six" unicode="6" horiz-adv-x="1042" 
d="M899 649q31 -73 31 -213q0 -129 -25 -194q-40 -121 -131 -189.5t-231 -68.5q-145 0 -243 71t-134 197q-21 74 -21 188v645q0 167 106.5 266t276.5 99q166 0 268.5 -95.5t102.5 -250.5v-17q0 -10 -7 -17t-18 -7h-59q-10 0 -17 5t-7 13v17q0 114 -73 185t-190 71
q-119 0 -196.5 -74.5t-77.5 -198.5v-331q0 -4 1.5 -5.5t4 -0.5t4.5 4q89 139 285 139q264 0 350 -238zM805 283q16 50 16 153q0 108 -20 160q-23 88 -91.5 141.5t-172.5 53.5q-103 0 -173 -54t-92 -143q-18 -62 -18 -162q0 -97 16 -149q21 -90 91.5 -145.5t177.5 -55.5
q98 0 169.5 51t96.5 150z" />
    <glyph glyph-name="seven" unicode="7" horiz-adv-x="956" 
d="M332 0q-14 0 -19.5 8t-1.5 21l477 1298q2 3 0 6.5t-6 3.5h-596q-8 0 -8 -8v-88q0 -11 -7 -17.5t-17 -6.5h-45q-11 0 -18 7t-7 17v168q0 11 7 18t18 7h774q10 0 17 -7t7 -18v-55q0 -13 -6 -31l-475 -1303q-6 -20 -27 -20h-67z" />
    <glyph glyph-name="eight" unicode="8" horiz-adv-x="1052" 
d="M723 774q-9 -6 0 -12q106 -52 156 -166q34 -75 34 -199q0 -152 -59 -247q-48 -79 -133.5 -122.5t-198.5 -43.5q-238 0 -336 178q-57 96 -57 237q0 113 41 203q52 109 154 162q9 6 0 12q-74 35 -127 107q-66 87 -66 204q0 113 53 193q50 82 138 127t200 45q246 0 344 -182
q47 -79 47 -183q0 -117 -63 -202q-51 -69 -127 -111zM287 922q78 -112 229 -115h8q158 0 238 121q45 67 45 153q0 72 -35 140q-79 137 -252 137q-84 0 -148.5 -37t-99.5 -100q-34 -61 -34 -142q0 -89 49 -157zM754 193q51 82 51 213q0 84 -25 151q-30 79 -96 122.5
t-162 43.5q-183 0 -254 -158q-28 -66 -28 -164q0 -122 47 -202q73 -121 235 -121q159 0 232 115z" />
    <glyph glyph-name="nine" unicode="9" horiz-adv-x="1062" 
d="M897 1182q21 -73 21 -189v-645q0 -166 -106.5 -265t-276.5 -99q-166 0 -268.5 95.5t-102.5 250.5v16q0 11 7 18t17 7h60q24 0 24 -17v-18q0 -114 73 -185t190 -71q119 0 196.5 74t77.5 198v332q0 4 -1.5 5.5t-4 0.5t-4.5 -4q-89 -139 -285 -139q-265 0 -350 237
q-31 73 -31 213q0 130 25 195q40 121 131 189.5t231 68.5q145 0 243 -71t134 -197zM526 643q103 0 173 54t92 143q18 62 18 161q0 98 -16 150q-21 90 -91.5 145.5t-177.5 55.5q-98 0 -169.5 -51t-96.5 -150q-16 -50 -16 -154q0 -107 20 -159q23 -88 91.5 -141.5t172.5 -53.5
z" />
    <glyph glyph-name="colon" unicode=":" horiz-adv-x="679" 
d="M340 727q-47 0 -79 32t-32 77q0 43 33.5 74.5t77.5 31.5q45 0 79 -31t34 -75t-33.5 -76.5t-79.5 -32.5zM340 33q-47 0 -79 31.5t-32 76.5q0 44 34 75.5t77 31.5q45 0 79 -31.5t34 -75.5t-33.5 -76t-79.5 -32z" />
    <glyph glyph-name="semicolon" unicode=";" horiz-adv-x="632" 
d="M324 727q-47 0 -80 32t-33 77q0 44 34 75t79 31q44 0 78 -31.5t34 -74.5q0 -44 -33 -76.5t-79 -32.5zM242 -143q-26 0 -23 26l55 400q3 22 27 22h55q24 0 21 -26l-76 -400q-3 -22 -27 -22h-32z" />
    <glyph glyph-name="less" unicode="&#x3c;" horiz-adv-x="1032" 
d="M946 127q0 -14 -8 -19t-20 1l-814 383q-18 9 -18 28v62q0 19 18 28l814 383q12 6 20 1t8 -19v-57q0 -20 -18 -29l-723 -332q-12 -6 0 -12l723 -332q18 -9 18 -29v-57z" />
    <glyph glyph-name="equal" unicode="=" horiz-adv-x="1032" 
d="M111 827q-11 0 -18 7.5t-7 17.5v45q0 11 7 18t18 7h811q10 0 17 -7t7 -18v-45q0 -11 -7 -18t-17 -7h-811zM111 393q-11 0 -18 7.5t-7 17.5v45q0 10 7 17t18 7h811q10 0 17 -6.5t7 -17.5v-45q0 -11 -7 -18t-17 -7h-811z" />
    <glyph glyph-name="greater" unicode="&#x3e;" horiz-adv-x="1032" 
d="M115 109q-12 -6 -20.5 -0.5t-8.5 18.5v57q0 20 18 29l723 332q12 6 0 12l-723 332q-18 9 -18 29v57q0 13 8.5 18.5t20.5 -0.5l813 -383q18 -9 18 -28v-62q0 -19 -18 -28z" />
    <glyph glyph-name="question" unicode="?" horiz-adv-x="911" 
d="M387 399q-11 0 -18 7.5t-7 17.5v129q0 53 19 97t49.5 76t68 62t74.5 61t67.5 65.5t49.5 83t19 106.5q0 112 -70 180t-184 68q-116 0 -187 -69t-71 -181v-66q0 -24 -25 -24l-59 2q-10 0 -17.5 7.5t-7.5 18.5v62q0 157 102.5 253.5t266.5 96.5q163 0 261.5 -95.5
t98.5 -254.5q0 -69 -19 -127t-49 -97.5t-66.5 -73t-73 -62t-66.5 -56t-49 -63t-19 -76.5v-123q0 -11 -7 -18t-17 -7h-64zM426 6q-45 0 -77 31t-32 74t32.5 73.5t76.5 30.5q43 0 76 -31t33 -73t-33 -73.5t-76 -31.5z" />
    <glyph glyph-name="at" unicode="@" horiz-adv-x="1699" 
d="M932 1241q203 0 353.5 -90.5t220 -250.5t42.5 -359q-25 -183 -116 -286t-224 -103q-147 0 -204 114q-4 11 -11 0q-72 -114 -223 -114q-106 0 -172.5 53.5t-77.5 140.5q-5 62 10 178q16 118 37 181q30 88 106 140t171 52q118 0 182 -84q2 -3 4.5 -4t4 0.5t1.5 5.5l6 49
q3 23 25 23h33q25 0 22 -27l-53 -434q-11 -87 31.5 -143t118.5 -56q90 0 156 82t87 228q20 141 -12 259t-105 198t-181.5 124.5t-239.5 44.5q-99 0 -195.5 -25.5t-186 -80t-158.5 -132.5t-111.5 -192.5t-45.5 -249.5q-3 -127 31 -235.5t100.5 -189t170 -126t233.5 -45.5
q100 0 195.5 23.5t148.5 58.5q20 14 35 -4l16 -20q16 -19 -4 -33q-66 -48 -177.5 -76.5t-223.5 -28.5q-195 0 -336.5 90.5t-209.5 246.5t-61 356q3 143 51 266t125 209t178 147t211 90t222 29zM774 227q72 0 123.5 42t71.5 106q16 44 28 151q13 117 11 152q0 63 -44 104
t-116 41q-71 0 -126 -40.5t-79 -102.5q-17 -48 -29 -156q-15 -112 -10 -149q3 -66 49.5 -107t120.5 -41z" />
    <glyph glyph-name="A" unicode="A" horiz-adv-x="1208" 
d="M1047 0q-20 0 -27 20l-88 269q-2 6 -8 6h-639q-7 0 -9 -6l-86 -269q-7 -20 -26 -20h-66q-12 0 -18 8t-2 21l454 1384q7 21 27 21h88q20 0 27 -21l456 -1384q4 -13 -2 -21t-18 -8h-63zM309 395q-2 -3 1 -6.5t7 -3.5h574q4 0 7 3.5t1 6.5l-291 897q-2 4 -6 4t-6 -4z" />
    <glyph glyph-name="B" unicode="B" horiz-adv-x="1288" 
d="M897 748q-5 -2 -5 -5t5 -4q111 -46 171 -136.5t60 -215.5q0 -180 -113.5 -283.5t-299.5 -103.5h-482q-10 0 -17 7t-7 18v1384q0 11 7 18t17 7h467q190 0 301 -98.5t111 -272.5q0 -114 -55.5 -194.5t-159.5 -120.5zM326 1337q-9 0 -9 -8v-536q0 -3 3 -6t6 -3h374
q139 0 222.5 75t83.5 198q0 128 -83.5 204t-222.5 76h-374zM715 98q138 0 221.5 81t83.5 214q0 137 -85 218t-230 81h-379q-9 0 -9 -8v-578q0 -8 9 -8h389z" />
    <glyph glyph-name="C" unicode="C" horiz-adv-x="1243" 
d="M631 -18q-212 0 -340.5 122t-128.5 322v584q0 198 128.5 319t340.5 121q209 0 338 -119.5t129 -314.5q0 -10 -7 -17.5t-18 -7.5l-59 -2q-25 0 -25 12v13q0 154 -98.5 247t-259.5 93q-163 0 -262 -93t-99 -247v-594q0 -154 99 -248t262 -94q161 0 259.5 94t98.5 248
q0 22 25 22l59 -2q25 0 25 -10v-10q0 -196 -129 -317t-338 -121z" />
    <glyph glyph-name="D" unicode="D" horiz-adv-x="1265" 
d="M233 0q-10 0 -17 7t-7 18v1384q0 11 7 18t17 7h472q197 0 311 -103.5t114 -281.5v-664q0 -178 -114 -281.5t-311 -103.5h-472zM317 104q0 -8 9 -8h385q143 0 226.5 81t84.5 220v639q0 140 -83 220.5t-228 80.5h-385q-9 0 -9 -8v-1225z" />
    <glyph glyph-name="E" unicode="E" horiz-adv-x="1251" 
d="M1122 1362q0 -11 -7 -18t-17 -7h-772q-9 0 -9 -8v-553q0 -8 9 -8h546q10 0 17.5 -7t7.5 -18v-47q0 -10 -7 -17t-18 -7h-546q-9 0 -9 -8v-560q0 -8 9 -8h772q10 0 17 -7t7 -17v-47q0 -11 -7 -18t-17 -7h-865q-10 0 -17 7t-7 18v1384q0 11 7 18t17 7h865q10 0 17 -7t7 -18
v-47z" />
    <glyph glyph-name="F" unicode="F" horiz-adv-x="1167" 
d="M1120 1362q0 -11 -7 -18t-17 -7h-770q-9 0 -9 -8v-553q0 -8 9 -8h544q10 0 17.5 -7t7.5 -18v-47q0 -10 -7 -17t-18 -7h-544q-9 0 -9 -8v-639q0 -11 -7 -18t-17 -7h-60q-10 0 -17 7t-7 18v1384q0 11 7 18t17 7h863q10 0 17 -7t7 -18v-47z" />
    <glyph glyph-name="G" unicode="G" horiz-adv-x="1239" 
d="M631 -16q-212 0 -340.5 120.5t-128.5 317.5v590q0 198 128.5 318t340.5 120q208 0 336.5 -119t128.5 -307v-25q0 -10 -7 -17t-18 -7h-59q-11 0 -18 7t-7 17v23q0 148 -98.5 240t-257.5 92q-163 0 -262 -93t-99 -245v-598q0 -152 100 -245t263 -93q160 0 257 88.5
t97 237.5v206q0 9 -8 9h-315q-11 0 -18 7t-7 17v47q0 10 7.5 17.5t17.5 7.5h407q11 0 18 -7.5t7 -17.5v-262q0 -207 -127 -326.5t-338 -119.5z" />
    <glyph glyph-name="H" unicode="H" horiz-adv-x="1353" 
d="M1038 1409q0 11 7 18t18 7h59q10 0 17.5 -7t7.5 -18v-1384q0 -11 -7.5 -18t-17.5 -7h-59q-11 0 -18 7t-7 18v639q0 8 -8 8h-704q-9 0 -9 -8v-639q0 -11 -7 -18t-17 -7h-60q-10 0 -17 7t-7 18v1384q0 11 7 18t17 7h60q10 0 17 -7t7 -18v-633q0 -8 9 -8h704q8 0 8 8v633z
" />
    <glyph glyph-name="I" unicode="I" horiz-adv-x="528" 
d="M233 0q-10 0 -17 7t-7 18v1384q0 11 7 18t17 7h60q10 0 17 -7t7 -18v-1384q0 -11 -7 -18t-17 -7h-60z" />
    <glyph glyph-name="J" unicode="J" horiz-adv-x="1181" 
d="M518 -16q-204 0 -328 114t-124 303v99q0 10 7 17t17 7h60q10 0 17 -7t7 -17v-99q0 -145 94.5 -233t249.5 -88q157 0 251.5 88t94.5 233v1008q0 11 7 18t18 7h59q10 0 17.5 -7t7.5 -18v-1008q0 -189 -125 -303t-330 -114z" />
    <glyph glyph-name="K" unicode="K" horiz-adv-x="1243" 
d="M233 0q-10 0 -17 7t-7 18v1384q0 11 7 18t17 7h60q10 0 17 -7t7 -18v-719q0 -5 4 -6.5t7 2.5l690 735q10 13 31 13h65q15 0 19.5 -9.5t-5.5 -21.5l-507 -557q-4 -4 0 -12l555 -803q8 -12 3 -21.5t-20 -9.5h-72q-18 0 -28 16l-512 740q-5 9 -12 2l-213 -219q-5 -5 -5 -11
v-503q0 -11 -7 -18t-17 -7h-60z" />
    <glyph glyph-name="L" unicode="L" horiz-adv-x="1161" 
d="M233 0q-10 0 -17 7t-7 18v1384q0 11 7 18t17 7h60q10 0 17 -7t7 -18v-1305q0 -8 9 -8h731q11 0 17.5 -7t6.5 -17v-47q0 -11 -7 -18t-17 -7h-824z" />
    <glyph glyph-name="M" unicode="M" horiz-adv-x="1460" 
d="M236 0q-10 0 -17.5 7t-7.5 18v1384q0 11 7.5 18t17.5 7h63q19 0 29 -17l395 -624q1 -3 6 -3t6 3l398 624q10 17 28 17h64q10 0 17 -7t7 -18v-1384q0 -11 -7 -18t-17 -7h-60q-10 0 -17 7t-7 18v1198q0 6 -4 7t-7 -5l-354 -561q-8 -17 -28 -17h-33q-19 0 -29 17l-356 561
q-3 6 -7 5t-4 -7v-1198q0 -11 -7 -18t-17 -7h-59z" />
    <glyph glyph-name="N" unicode="N" horiz-adv-x="1386" 
d="M233 0q-10 0 -17 7t-7 18v1384q0 11 7 18t17 7h62q21 0 29 -17l735 -1192q3 -6 6.5 -5t3.5 7v1182q0 11 7.5 18t17.5 7h59q11 0 18 -7t7 -18v-1384q0 -11 -7 -18t-18 -7h-61q-21 0 -29 16l-735 1194q-3 6 -7 5t-4 -7v-1183q0 -11 -7 -18t-17 -7h-60z" />
    <glyph glyph-name="O" unicode="O" horiz-adv-x="1273" 
d="M635 -16q-214 0 -343.5 128t-129.5 337v536q0 209 129.5 337t343.5 128q215 0 346 -128t131 -337v-536q0 -209 -131 -337t-346 -128zM635 78q166 0 267.5 100.5t101.5 265.5v543q0 164 -101.5 265.5t-267.5 101.5q-164 0 -264.5 -101.5t-100.5 -265.5v-543
q0 -166 100 -266t265 -100z" />
    <glyph glyph-name="P" unicode="P" horiz-adv-x="1208" 
d="M741 1438q174 0 280.5 -108t106.5 -283t-107 -281.5t-284 -106.5h-426q-8 0 -8 -8v-626q0 -11 -7 -18t-17 -7h-60q-10 0 -17 7t-7 18v1388q0 11 7 18t17 7h522zM733 752q129 0 208 80.5t79 211.5q0 133 -79 214t-208 81h-422q-8 0 -8 -8v-571q0 -8 8 -8h422z" />
    <glyph glyph-name="Q" unicode="Q" horiz-adv-x="1171" 
d="M586 1450q205 0 330.5 -124t125.5 -327v-571q0 -184 -107 -303t-288 -139q-8 0 -8 -9v-198q0 -11 -7.5 -18t-17.5 -7h-59q-11 0 -18 7t-7 18v198q0 9 -8 9q-181 20 -287 139t-106 303v571q0 203 126 327t331 124zM934 428v578q0 157 -95.5 252.5t-252.5 95.5
t-252.5 -95.5t-95.5 -252.5v-578q0 -157 95.5 -252.5t252.5 -95.5t252.5 95.5t95.5 252.5z" />
    <glyph glyph-name="R" unicode="R" horiz-adv-x="1253" 
d="M1063 0q-20 0 -29 18l-315 652q-3 6 -8 6h-385q-9 0 -9 -8v-643q0 -11 -7 -18t-17 -7h-60q-10 0 -17 7t-7 18v1388q0 11 7 18t17 7h512q172 0 277.5 -106.5t105.5 -278.5q0 -147 -80.5 -246.5t-216.5 -122.5q-9 -3 -6 -10l314 -645q6 -13 0.5 -21t-19.5 -8h-57zM326 1339
q-9 0 -9 -8v-557q0 -8 9 -8h409q127 0 206 79t79 206q0 130 -78.5 209t-206.5 79h-409z" />
    <glyph glyph-name="S" unicode="S" horiz-adv-x="1196" 
d="M608 -16q-222 0 -351.5 101t-129.5 271v64q0 10 7 17t18 7h55q11 0 17.5 -7t6.5 -17v-58q0 -126 104 -204t283 -78q170 0 259.5 71t89.5 195q0 111 -86.5 183.5t-309.5 166.5q-54 23 -82 35t-73 32.5t-68 34t-56.5 35.5t-50.5 40.5t-37.5 44t-30 52.5t-16.5 60t-7 70
q0 168 115 259t321 91q224 0 350.5 -102t126.5 -275v-43q0 -10 -7 -17t-18 -7h-59q-11 0 -18 7t-7 17v37q0 128 -98 207.5t-276 79.5q-156 0 -240 -64.5t-84 -185.5q0 -36 8.5 -66t20.5 -53t39.5 -46.5t51 -39.5t71 -38.5t83 -37t101.5 -41.5q112 -46 184.5 -84t136 -89
t93.5 -114.5t30 -144.5q0 -165 -122.5 -265.5t-344.5 -100.5z" />
    <glyph glyph-name="T" unicode="T" horiz-adv-x="1157" 
d="M1036 1434q10 0 17.5 -7t7.5 -18v-47q0 -10 -7.5 -17.5t-17.5 -7.5h-405q-8 0 -8 -8v-1304q0 -11 -7.5 -18t-17.5 -7h-59q-11 0 -18 7t-7 18v1304q0 8 -8 8h-385q-11 0 -18 7.5t-7 17.5v47q0 11 7 18t18 7h915z" />
    <glyph glyph-name="U" unicode="U" horiz-adv-x="1337" 
d="M668 -16q-214 0 -344.5 124t-130.5 326v975q0 11 7 18t17 7h59q10 0 17.5 -7t7.5 -18v-979q0 -157 101.5 -253.5t265.5 -96.5q165 0 265.5 96.5t100.5 253.5v979q0 11 7 18t18 7h59q10 0 17.5 -7t7.5 -18v-975q0 -203 -130 -326.5t-345 -123.5z" />
    <glyph glyph-name="V" unicode="V" horiz-adv-x="1187" 
d="M557 0q-20 0 -27 20l-452 1385q-4 13 2 21t18 8h66q19 0 26 -21l398 -1245q2 -4 6 -4t6 4l401 1245q7 21 27 21h62q12 0 18 -8t2 -21l-455 -1385q-7 -20 -26 -20h-72z" />
    <glyph glyph-name="W" unicode="W" horiz-adv-x="1792" 
d="M483 0q-21 0 -28 20l-398 1387q-6 27 21 27h63q22 0 29 -21l338 -1190q2 -5 5 -5t5 5l311 1190q6 21 29 21h66q22 0 28 -21l324 -1190q2 -5 5 -5t5 5l340 1190q7 21 29 21h59q27 0 21 -27l-398 -1387q-7 -20 -28 -20h-64q-22 0 -28 20l-320 1213q-1 3 -2.5 4t-3 0
t-2.5 -4l-318 -1213q-6 -20 -28 -20h-60z" />
    <glyph glyph-name="X" unicode="X" horiz-adv-x="1183" 
d="M104 0q-14 0 -18.5 8t2.5 21l436 682q3 6 0 12l-436 682q-7 13 -2.5 21t18.5 8h68q19 0 29 -17l385 -608q2 -3 6 -3t6 3l385 608q10 17 29 17h65q14 0 19 -8t-2 -21l-435 -684q-3 -6 0 -12l435 -680q7 -13 2 -21t-19 -8h-65q-19 0 -29 16l-385 607q-2 3 -6 3t-6 -3
l-385 -607q-10 -16 -29 -16h-68z" />
    <glyph glyph-name="Y" unicode="Y" horiz-adv-x="1134" 
d="M539 0q-11 0 -18 7t-7 18v626q0 9 -2 11l-426 743q-7 13 -1.5 21t19.5 8h60q21 0 31 -17l366 -641q1 -3 6 -3t6 3l367 641q10 17 31 17h59q14 0 20 -8t-1 -21l-426 -743q-2 -2 -2 -11v-626q0 -11 -7.5 -18t-17.5 -7h-57z" />
    <glyph glyph-name="Z" unicode="Z" horiz-adv-x="1120" 
d="M123 0q-11 0 -18 7t-7 18v59q0 18 8 31l773 1212q3 3 0.5 6.5t-7.5 3.5h-749q-11 0 -18 7.5t-7 17.5v47q0 11 7 18t18 7h856q11 0 18 -7t7 -18v-59q0 -16 -9 -31l-770 -1213q-3 -3 -1 -6.5t7 -3.5h748q11 0 18 -7t7 -17v-47q0 -11 -7 -18t-18 -7h-856z" />
    <glyph glyph-name="bracketleft" unicode="[" horiz-adv-x="757" 
d="M90 -233q-10 0 -17 6.5t-7 17.5v1757q0 11 7 18t17 7h361q10 0 17 -7t7 -18v-49q0 -11 -6.5 -17.5t-17.5 -6.5h-269q-8 0 -8 -9v-1595q0 -8 8 -8h271q10 0 17 -7t7 -18v-47q0 -11 -6.5 -17.5t-17.5 -6.5h-363z" />
    <glyph glyph-name="backslash" unicode="\" horiz-adv-x="686" 
d="M612 29q3 -12 -2.5 -20.5t-17.5 -8.5h-60q-19 0 -26 20l-432 1385q-3 12 2.5 20.5t17.5 8.5h60q19 0 26 -21z" />
    <glyph glyph-name="bracketright" unicode="]" horiz-adv-x="757" 
d="M692 -209q0 -11 -7 -17.5t-17 -6.5h-363q-11 0 -17.5 6.5t-6.5 17.5v47q0 11 7 18t17 7h270q9 0 9 8v1595q0 3 -3 6t-6 3h-268q-11 0 -17.5 6.5t-6.5 17.5v49q0 11 7 18t17 7h361q10 0 17 -7t7 -18v-1757z" />
    <glyph glyph-name="asciicircum" unicode="^" horiz-adv-x="909" 
d="M117 635q-29 0 -19 29l299 751q6 19 29 19h57q23 0 29 -19l301 -751q5 -12 0 -20.5t-18 -8.5h-47q-23 0 -29 18l-258 660q-1 6 -6 6t-6 -6l-259 -660q-6 -18 -28 -18h-45z" />
    <glyph glyph-name="underscore" unicode="_" horiz-adv-x="970" 
d="M90 0q-10 0 -17 7t-7 18v41q0 10 7 17t17 7h793q11 0 17.5 -7t6.5 -17v-41q0 -11 -7 -18t-17 -7h-793z" />
    <glyph glyph-name="grave" unicode="`" horiz-adv-x="387" 
d="M307 1212q6 -12 1.5 -20t-17.5 -8h-47q-21 0 -29 16l-131 219q-7 13 -2.5 21t18.5 8h56q20 0 30 -16z" />
    <glyph glyph-name="a" unicode="a" horiz-adv-x="1036" 
d="M520 1049q180 0 274.5 -93t94.5 -251v-680q0 -11 -7.5 -18t-17.5 -7h-59q-11 0 -18 7t-7 18v88q0 5 -3 6.5t-7 -2.5q-54 -65 -141.5 -99t-188.5 -34q-67 0 -125 16t-106.5 49t-76.5 90.5t-28 134.5q0 153 112.5 240.5t309.5 87.5h246q8 0 8 8v92q0 115 -63.5 182.5
t-198.5 67.5q-104 0 -171.5 -41.5t-84.5 -113.5q-7 -24 -29 -21l-63 8q-26 4 -23 23q20 109 121 175.5t252 66.5zM461 78q130 0 224.5 63t94.5 176v187q0 8 -8 8h-233q-147 0 -236.5 -61.5t-89.5 -169.5q0 -100 69.5 -151.5t178.5 -51.5z" />
    <glyph glyph-name="b" unicode="b" horiz-adv-x="1101" 
d="M942 772q21 -82 21 -258q0 -169 -23 -258q-34 -125 -130.5 -198.5t-236.5 -73.5q-184 0 -276 141q-3 5 -6.5 3.5t-3.5 -7.5v-96q0 -11 -7.5 -18t-17.5 -7h-59q-11 0 -18 7t-7 18v1384q0 11 7 18t18 7h59q10 0 17.5 -7t7.5 -18v-496q0 -5 3.5 -6.5t6.5 2.5q94 140 276 140
q142 0 239 -75t130 -202zM827 272q10 31 14.5 53.5t8.5 71t4 119.5q0 107 -8 157t-25 93q-24 82 -93.5 134t-166.5 52q-95 0 -160 -52.5t-86 -135.5q-15 -41 -20.5 -91t-5.5 -159q0 -172 24 -242q23 -86 87.5 -139t160.5 -53q100 0 172 52.5t94 139.5z" />
    <glyph glyph-name="c" unicode="c" horiz-adv-x="1056" 
d="M553 -16q-145 0 -247 75.5t-136 202.5q-27 102 -27 256q0 148 27 254q33 125 135.5 201t247.5 76t250.5 -74t134.5 -184q8 -23 12 -54q3 -22 -22 -26l-58 -9q-21 -3 -28 23q0 9 -4 25q-19 86 -97 144t-188 58q-113 0 -187.5 -59.5t-95.5 -157.5q-18 -77 -18 -219
q0 -143 18 -217q21 -100 95.5 -159.5t187.5 -59.5q112 0 191 58.5t94 146.5l2 8q3 22 28 18l56 -6q25 -4 22 -29l-8 -32q-28 -115 -133.5 -187.5t-251.5 -72.5z" />
    <glyph glyph-name="d" unicode="d" horiz-adv-x="1101" 
d="M815 1409q0 11 7.5 18t17.5 7h59q11 0 18 -7t7 -18v-1384q0 -11 -7 -18t-18 -7h-59q-10 0 -17.5 7t-7.5 18v96q0 6 -3.5 7.5t-6.5 -3.5q-45 -68 -116 -104.5t-161 -36.5q-140 0 -236 73.5t-130 198.5q-23 89 -23 258q0 176 21 258q33 127 129.5 202t238.5 75
q90 0 161 -36.5t116 -103.5q3 -4 6.5 -2.5t3.5 6.5v496zM788 272q25 73 25 242q0 108 -6 158t-21 92q-21 83 -85.5 135.5t-159.5 52.5q-97 0 -166.5 -52t-93.5 -134q-17 -43 -25 -93t-8 -157q0 -103 6 -151.5t20 -92.5q22 -87 94 -139.5t173 -52.5q96 0 160 53t87 139z" />
    <glyph glyph-name="e" unicode="e" horiz-adv-x="1087" 
d="M557 78q99 1 172 46t107 122q12 21 32 12l37 -14q25 -11 15 -33q-44 -104 -141 -165.5t-230 -61.5q-142 0 -239 69.5t-136 190.5q-29 93 -29 274q0 179 17 246q33 130 134.5 207.5t248.5 77.5q163 0 263.5 -86t127.5 -236q14 -64 14 -219q0 -27 -24 -27h-666q-8 0 -8 -8
q0 -130 10 -176q22 -99 100.5 -159t194.5 -60zM266 739q-11 -39 -14 -161q0 -9 8 -9h571q9 0 9 9q0 98 -11 155q-22 99 -97 159t-187 60q-111 0 -184.5 -58.5t-94.5 -154.5z" />
    <glyph glyph-name="f" unicode="f" horiz-adv-x="714" 
d="M555 1337q-122 0 -165.5 -57t-43.5 -186v-54q0 -8 8 -8h236q10 0 17 -7t7 -17v-52q0 -10 -7 -17t-17 -7h-236q-8 0 -8 -8v-899q0 -11 -7 -18t-17 -7h-60q-10 0 -17 7t-7 18v899q0 8 -9 8h-131q-10 0 -17 7t-7 17v52q0 10 7 17t17 7h131q9 0 9 8v58q0 90 14 150t49 103.5
t95 63t151 19.5h49q10 0 17.5 -7t7.5 -18v-47q0 -10 -7.5 -17.5t-17.5 -7.5h-41z" />
    <glyph glyph-name="g" unicode="g" horiz-adv-x="1085" 
d="M817 1008q0 10 7 17t18 7h59q11 0 18 -7t7 -17v-985q0 -230 -138.5 -335t-390.5 -96q-24 3 -24 27l2 51q0 26 24 23q218 -6 318 75t100 257v102q0 6 -3.5 7.5t-6.5 -3.5q-92 -141 -281 -141q-134 0 -233.5 72.5t-132.5 199.5q-23 88 -23 252q0 176 25 264q33 121 129 196
t231 75q189 0 285 -140q3 -4 6.5 -2.5t3.5 6.5v95zM807 301q10 49 10 215q0 165 -10 219q-16 93 -87 155t-177 62q-107 0 -180 -61t-99 -156q-18 -61 -18 -217q0 -152 18 -217q23 -94 97.5 -155.5t181.5 -61.5q110 0 179 62t85 155z" />
    <glyph glyph-name="h" unicode="h" horiz-adv-x="1099" 
d="M586 1047q157 0 253.5 -96.5t96.5 -254.5v-671q0 -11 -7 -18t-18 -7h-59q-10 0 -17.5 7t-7.5 18v651q0 121 -73.5 197.5t-190.5 76.5q-124 0 -200 -75t-76 -195v-655q0 -11 -7.5 -18t-17.5 -7h-59q-11 0 -18 7t-7 18v1384q0 11 7 18t18 7h59q10 0 17.5 -7t7.5 -18v-498
q0 -6 2.5 -7.5t5.5 3.5q44 68 119 104t172 36z" />
    <glyph glyph-name="i" unicode="i" horiz-adv-x="495" 
d="M248 1239q-40 0 -67 26t-27 64t27 63t67 25q41 0 67.5 -25t26.5 -63q0 -39 -26.5 -64.5t-67.5 -25.5zM219 0q-10 0 -17 7t-7 18v983q0 10 6.5 17t17.5 7h60q11 0 17.5 -7t6.5 -17v-983q0 -11 -7 -18t-17 -7h-60z" />
    <glyph glyph-name="j" unicode="j" horiz-adv-x="466" 
d="M236 1237q-41 0 -67 25t-26 65t27 65t66 25q42 0 69 -24.5t27 -65.5q0 -40 -26 -65t-70 -25zM-35 -428q-24 0 -24 25v45q0 24 24 24q106 4 161.5 61t55.5 160v1121q0 10 7 17t18 7h59q11 0 18 -7t7 -17v-1121q0 -156 -80.5 -234t-245.5 -81z" />
    <glyph glyph-name="k" unicode="k" horiz-adv-x="1007" 
d="M203 0q-11 0 -18 7t-7 18v1384q0 11 7 18t18 7h59q10 0 17.5 -7t7.5 -18v-870q0 -4 3.5 -5.5t6.5 1.5l471 485q12 12 31 12h71q15 0 19 -9.5t-6 -21.5l-256 -272q-5 -5 -2 -10l313 -690q6 -13 1 -21t-19 -8h-64q-21 0 -29 18l-276 627q-4 8 -10 2l-250 -258q-4 -4 -4 -10
v-354q0 -11 -7.5 -18t-17.5 -7h-59z" />
    <glyph glyph-name="l" unicode="l" horiz-adv-x="464" 
d="M203 0q-11 0 -18 7t-7 18v1384q0 11 7 18t18 7h59q10 0 17.5 -7t7.5 -18v-1384q0 -11 -7.5 -18t-17.5 -7h-59z" />
    <glyph glyph-name="m" unicode="m" horiz-adv-x="1693" 
d="M1202 1047q151 0 240.5 -90.5t89.5 -247.5v-684q0 -11 -7 -18t-18 -7h-57q-10 0 -17.5 7t-7.5 18v663q0 120 -70 191t-184 71q-120 0 -192 -69.5t-72 -188.5v-667q0 -11 -7 -18t-17 -7h-58q-10 0 -17 7t-7 18v663q0 120 -69 191t-183 71q-120 0 -191 -69t-71 -189v-667
q0 -11 -7.5 -18t-17.5 -7h-59q-11 0 -18 7t-7 18v983q0 10 7 17t18 7h59q11 0 18 -7t7 -17v-88q0 -5 3.5 -7t6.5 2q89 132 281 132q107 0 184 -46t115 -131q3 -9 10 -2q42 89 124 134t191 45z" />
    <glyph glyph-name="n" unicode="n" horiz-adv-x="1099" 
d="M586 1047q157 0 253.5 -96.5t96.5 -254.5v-671q0 -11 -7 -18t-18 -7h-59q-10 0 -17.5 7t-7.5 18v651q0 121 -73.5 197.5t-190.5 76.5q-124 0 -200 -75t-76 -195v-655q0 -11 -7.5 -18t-17.5 -7h-59q-11 0 -18 7t-7 18v983q0 10 7 17t18 7h59q11 0 18 -7t7 -17v-97
q0 -6 2.5 -7.5t5.5 3.5q44 68 119 104t172 36z" />
    <glyph glyph-name="o" unicode="o" horiz-adv-x="1103" 
d="M553 -16q-146 0 -247.5 75t-137.5 203q-25 85 -25 256q0 159 23 254q36 126 138.5 201.5t248.5 75.5q145 0 248 -75.5t137 -201.5q23 -87 23 -254q0 -169 -23 -256q-34 -127 -137.5 -202.5t-247.5 -75.5zM553 80q109 0 185 59.5t100 159.5q12 56 12 217q0 163 -12 217
q-24 100 -100 159.5t-187 59.5t-186 -59.5t-99 -159.5q-12 -54 -12 -217t12 -217q24 -101 99.5 -160t187.5 -59z" />
    <glyph glyph-name="p" unicode="p" horiz-adv-x="1116" 
d="M954 776q23 -89 23 -258q0 -176 -21 -258q-33 -127 -129.5 -201.5t-238.5 -74.5q-90 0 -161 36t-116 103q-3 4 -6.5 2.5t-3.5 -6.5v-496q0 -10 -7 -17t-18 -7h-59q-11 0 -17.5 6.5t-6.5 17.5v1385q0 10 6.5 17t17.5 7h59q11 0 18 -7t7 -17v-97q0 -6 3.5 -7.5t6.5 3.5
q45 68 116 105t161 37q140 0 236 -73.5t130 -199.5zM836 266q17 42 24.5 92t7.5 158q0 103 -6 151.5t-20 92.5q-22 87 -94 139.5t-173 52.5q-96 0 -160 -53t-87 -139q-25 -73 -25 -242q0 -108 6 -158t21 -92q21 -83 85.5 -135.5t159.5 -52.5q97 0 167 52t94 134z" />
    <glyph glyph-name="q" unicode="q" horiz-adv-x="1116" 
d="M815 1008q0 10 7 17t18 7h59q11 0 18 -7t7 -17v-1385q0 -10 -7 -17t-18 -7h-59q-11 0 -18 7t-7 17v496q0 5 -3.5 6.5t-6.5 -2.5q-45 -67 -116 -103t-161 -36q-142 0 -238.5 74.5t-129.5 201.5q-21 82 -21 258q0 169 23 258q34 126 130 199.5t236 73.5q90 0 161 -37
t116 -105q3 -5 6.5 -3.5t3.5 7.5v97zM786 268q15 42 21 92t6 158q0 169 -25 242q-23 86 -87 139t-160 53q-101 0 -173 -52.5t-94 -139.5q-14 -44 -20 -92.5t-6 -151.5q0 -107 8 -157t25 -93q24 -82 93.5 -134t166.5 -52q95 0 159.5 52.5t85.5 135.5z" />
    <glyph glyph-name="r" unicode="r" horiz-adv-x="735" 
d="M567 1040q64 0 117 -22q18 -9 12 -31l-16 -59q-6 -24 -31 -15q-48 15 -98 13q-114 -1 -189 -86.5t-75 -208.5v-606q0 -11 -7.5 -18t-17.5 -7h-59q-11 0 -18 7t-7 18v983q0 10 7 17t18 7h59q11 0 18 -7t7 -17v-136q0 -6 3 -7t4 3q1 1 1 2q92 170 272 170z" />
    <glyph glyph-name="s" unicode="s" horiz-adv-x="978" 
d="M500 -10q-165 0 -270 77.5t-105 190.5v23q0 10 7 17t18 7h57q24 0 24 -20v-23q0 -75 75.5 -129.5t191.5 -54.5t188 54.5t72 137.5q0 34 -15 62t-35.5 46t-60 35.5t-68.5 27.5t-81 25q-11 3 -17 5q-48 15 -75 23.5t-69.5 25t-67 31t-54.5 37.5t-46 47.5t-27 58t-11 72.5
q0 125 100 199.5t261 74.5q164 0 265 -77t101 -195v-2q0 -11 -7 -18t-17 -7h-56q-24 0 -24 15v12q0 77 -72.5 129.5t-192.5 52.5q-115 0 -184 -48.5t-69 -129.5q0 -33 15 -60.5t35.5 -45.5t60.5 -36.5t70.5 -28.5t84.5 -26q42 -12 59 -17.5t56 -18.5t57.5 -21t50.5 -24
t47.5 -30t37 -35t31.5 -43t17.5 -50t7.5 -60q0 -128 -100.5 -207t-265.5 -79z" />
    <glyph glyph-name="t" unicode="t" horiz-adv-x="735" 
d="M608 965q0 -11 -7 -18t-17 -7h-236q-8 0 -8 -8v-645q0 -104 48 -146.5t151 -42.5h43q10 0 17 -7t7 -17v-47q0 -25 -24 -25q-10 0 -29.5 -1t-28.5 -1q-69 0 -118.5 11.5t-90 39t-61 79.5t-21.5 128v674q0 8 -8 8h-119q-10 0 -17 7t-7 18v43q0 10 7 17t17 7h119q8 0 8 8
v230q0 10 7 17t18 7h57q11 0 18 -7t7 -17v-230q0 -8 8 -8h236q10 0 17 -7t7 -17v-43z" />
    <glyph glyph-name="u" unicode="u" horiz-adv-x="1095" 
d="M811 1008q0 10 7 17t18 7h57q11 0 18 -7t7 -17v-983q0 -11 -7 -18t-18 -7h-57q-10 0 -17.5 7t-7.5 18v96q0 6 -3.5 7t-6.5 -5q-89 -137 -287 -137q-153 0 -252.5 90.5t-99.5 247.5v684q0 10 7 17t17 7h58q10 0 17 -7t7 -17v-656q0 -123 72.5 -196.5t194.5 -73.5
q126 0 201 74t75 196v656z" />
    <glyph glyph-name="v" unicode="v" horiz-adv-x="950" 
d="M438 0q-19 0 -26 20l-336 984q-9 28 18 28h70q19 0 26 -20l279 -846q1 -4 6 -4t6 4l279 846q7 20 26 20l70 -2q12 0 17 -8t1 -21l-335 -981q-7 -20 -27 -20h-74z" />
    <glyph glyph-name="w" unicode="w" horiz-adv-x="1443" 
d="M387 0q-22 0 -29 20l-284 984q-3 12 2.5 20t17.5 8h60q22 0 28 -20l234 -852q2 -4 5 -4t5 4l236 852q7 20 28 20h58q21 0 28 -20l238 -850q2 -4 6 -4t6 4l236 850q6 20 28 20l60 -2q26 0 20 -26l-289 -984q-7 -20 -26 -20h-64q-21 0 -28 20l-238 816q-1 4 -6 4t-6 -4
l-234 -816q-7 -20 -28 -20h-64z" />
    <glyph glyph-name="x" unicode="x" horiz-adv-x="946" 
d="M86 0q-15 0 -20 9.5t4 21.5l340 479q3 6 0 12l-340 479q-9 12 -4 21.5t20 9.5h64q18 0 28 -16l287 -410q1 -3 6 -3t6 3l285 410q10 16 29 16h69q15 0 20.5 -9.5t-3.5 -21.5l-340 -479q-3 -6 0 -12l340 -479q9 -12 3.5 -21.5t-20.5 -9.5h-65q-19 0 -29 16l-285 408
q-1 3 -6 3t-6 -3l-287 -408q-10 -16 -28 -16h-68z" />
    <glyph glyph-name="y" unicode="y" horiz-adv-x="919" 
d="M121 -410q-6 0 -10.5 7.5t-4.5 17.5v45q0 10 4.5 17.5t10.5 7.5h14q60 1 96 12.5t67.5 49t54 91t55.5 156.5q4 8 0 12l-349 998q-4 13 2 20.5t19 7.5h61q20 0 27 -20l291 -854q1 -4 6 -4t6 4l281 854q7 20 26 20h64q13 0 18.5 -7.5t1.5 -20.5l-385 -1108
q-35 -100 -64 -157t-69 -92t-86.5 -46t-122.5 -11h-14z" />
    <glyph glyph-name="z" unicode="z" horiz-adv-x="905" 
d="M98 0q-10 0 -17 7t-7 18v59q0 18 10 31l608 807q3 3 1.5 6.5t-5.5 3.5h-582q-10 0 -17 7t-7 17v52q0 10 7 17t17 7h697q11 0 17.5 -7t6.5 -17v-60q0 -17 -10 -30l-614 -807q-3 -3 -1.5 -7t5.5 -4h594q11 0 17.5 -7t6.5 -17v-51q0 -11 -7 -18t-17 -7h-703z" />
    <glyph glyph-name="braceleft" unicode="{" horiz-adv-x="579" 
d="M381 -233q-103 0 -149 53.5t-46 173.5v448q0 86 -23.5 130t-74.5 55q-22 6 -22 26v45q0 21 22 27q50 11 74 54.5t24 127.5v436q0 120 46.5 175t148.5 55h111q10 0 17 -7t7 -18v-49q0 -11 -7 -17.5t-17 -6.5h-80q-60 0 -88.5 -37.5t-28.5 -120.5v-412q0 -93 -23 -145.5
t-73 -77.5q-10 -3 0 -10q50 -26 73 -80t23 -146v-426q0 -83 28 -120t89 -37h80q10 0 17 -7t7 -18v-47q0 -11 -7 -17.5t-17 -6.5h-111z" />
    <glyph glyph-name="bar" unicode="|" horiz-adv-x="319" 
d="M131 -164q-11 0 -18 7t-7 18v1671q0 10 7 17t18 7h59q11 0 18 -7t7 -17v-1671q0 -11 -7.5 -18t-17.5 -7h-59z" />
    <glyph glyph-name="braceright" unicode="}" horiz-adv-x="579" 
d="M199 -233h-111q-11 0 -18 7t-7 17v47q0 10 7.5 17.5t17.5 7.5h80q61 0 89 37t28 120v426q0 92 23 146t73 80q10 7 0 10q-50 25 -73 77.5t-23 145.5v412q0 83 -28.5 120.5t-88.5 37.5h-80q-11 0 -18 7t-7 17v49q0 10 7.5 17.5t17.5 7.5h111q102 0 148 -55t46 -175v-436
q0 -161 99 -182q22 -6 22 -27v-45q0 -20 -22 -26q-51 -11 -75 -55t-24 -130v-448q0 -120 -45.5 -173.5t-148.5 -53.5z" />
    <glyph glyph-name="asciitilde" unicode="~" horiz-adv-x="1007" 
d="M700 489q-44 0 -88 13.5t-63.5 23.5t-65.5 37q-88 49 -159 49q-100 0 -156 -82q-16 -19 -35 -6l-29 19q-19 13 -8 32q31 63 91 99.5t135 36.5q83 0 178 -54q4 -2 12 -7q35 -21 55.5 -31t57 -20.5t73.5 -10.5q43 0 74.5 20.5t63.5 59.5q15 18 34 6l31 -23q19 -13 10 -33
q-80 -129 -211 -129z" />
    <glyph glyph-name="uni00A0" unicode="&#xa0;" horiz-adv-x="409" 
 />
    <glyph glyph-name="exclamdown" unicode="&#xa1;" horiz-adv-x="647" 
d="M317 1450q46 0 79.5 -32t33.5 -77q0 -44 -34 -75t-79 -31q-43 0 -76.5 31t-33.5 75q0 46 32 77.5t78 31.5zM276 973q0 10 7 17t18 7h45q11 0 18 -7t7 -17l8 -924q0 -10 -7 -17t-18 -7h-59q-11 0 -18 7t-7 17z" />
    <glyph glyph-name="cent" unicode="&#xa2;" horiz-adv-x="1056" 
d="M838 469l2 8q1 10 9 15.5t19 3.5l56 -7q25 -4 22 -28q-1 -3 -2 -9t-2.5 -12.5t-3.5 -11.5q-26 -108 -123 -179.5t-233 -80.5q-9 0 -9 -8l2 -135q0 -11 -7 -18t-17 -7h-47q-10 0 -17.5 7t-7.5 18l2 141q0 7 -8 10q-116 19 -194.5 90t-108.5 180q-27 102 -27 256
q0 148 27 254q28 107 107.5 178.5t195.5 90.5q8 3 8 10l-2 139q0 10 7.5 17.5t17.5 7.5h47q10 0 17 -7t7 -18l-2 -133q0 -8 9 -8q135 -9 232 -81.5t124 -176.5q8 -23 12 -53q3 -23 -22 -27l-58 -8q-22 -3 -28 22q0 9 -4 25q-19 87 -97 145t-188 58q-113 0 -187.5 -59.5
t-95.5 -157.5q-18 -77 -18 -220t18 -217q21 -100 95.5 -159.5t187.5 -59.5q112 0 191 58.5t94 146.5z" />
    <glyph glyph-name="sterling" unicode="&#xa3;" horiz-adv-x="1239" 
d="M412 104q-7 -10 4 -10h725q11 0 17.5 -7t6.5 -17v-45q0 -11 -7 -18t-17 -7h-846q-11 0 -18 7t-7 18v49q0 16 17 30q51 31 80.5 100.5t29.5 160.5v270q0 8 -8 8h-156q-10 0 -17 7t-7 18v41q0 11 6.5 17.5t17.5 6.5h156q8 0 8 8v318q0 179 100.5 281t280.5 110
q135 6 227.5 -59.5t137.5 -194.5q4 -12 -1.5 -19.5t-17.5 -9.5l-55 -12q-20 -6 -31 19q-33 97 -96.5 141t-159.5 41q-133 -6 -204.5 -81.5t-71.5 -213.5v-320q0 -8 8 -8h393q11 0 18 -7t7 -17v-41q0 -10 -7 -17.5t-18 -7.5h-393q-8 0 -8 -8v-266q0 -171 -94 -265z" />
    <glyph glyph-name="currency" unicode="&#xa4;" horiz-adv-x="1040" 
d="M907 616q0 -129 -80 -233q-3 -7 2 -12l129 -129q18 -18 0 -35l-34 -31q-18 -18 -35 0l-127 125q-5 5 -12 2q-104 -80 -238 -80q-125 0 -229 74q-7 4 -13 -2l-118 -119q-8 -8 -18 -8t-17 8l-35 31q-20 17 -2 35l121 118q3 1 3.5 5.5t-1.5 7.5q-88 109 -88 243
q0 132 82 238q3 7 -2 12l-127 127q-18 17 0 35l34 31q18 17 35 0l125 -127q5 -5 12 -2q104 80 238 80q136 0 246 -86q7 -3 12 2l131 133q17 17 35 0l35 -31q20 -17 2 -35l-137 -135q-5 -5 -2 -12q73 -98 73 -230zM213 616q0 -123 88 -210t211 -87t211 87t88 210t-88 211
t-211 88t-211 -88t-88 -211z" />
    <glyph glyph-name="yen" unicode="&#xa5;" horiz-adv-x="1411" 
d="M1169 1434q14 0 20 -8t-1 -21l-400 -696q-2 -3 0.5 -7t6.5 -4h249q11 0 18 -7t7 -17v-23q0 -10 -7 -17t-18 -7h-276q-8 0 -8 -9v-182q0 -8 8 -8h276q10 0 17.5 -7t7.5 -18v-22q0 -11 -7.5 -18t-17.5 -7h-276q-8 0 -8 -8v-323q0 -11 -7 -18t-18 -7h-57q-10 0 -17.5 7
t-7.5 18v323q0 8 -8 8h-285q-10 0 -17 7t-7 18v22q0 11 7 18t17 7h285q8 0 8 8v182q0 9 -8 9h-285q-10 0 -17 6.5t-7 17.5v23q0 10 7 17t17 7h258q4 0 6.5 4t0.5 7l-400 696q-7 13 -1 21t20 8h59q21 0 31 -17l366 -641q2 -3 7 -3t6 3l366 641q10 17 31 17h59z" />
    <glyph glyph-name="brokenbar" unicode="&#xa6;" horiz-adv-x="319" 
d="M131 813q-11 0 -18 7.5t-7 17.5v694q0 10 7 17t18 7h59q11 0 18 -7t7 -17v-694q0 -10 -7.5 -17.5t-17.5 -7.5h-59zM131 -164q-11 0 -18 7t-7 18v694q0 11 7 18t18 7h59q10 0 17.5 -7t7.5 -18v-694q0 -11 -7.5 -18t-17.5 -7h-59z" />
    <glyph glyph-name="section" unicode="&#xa7;" horiz-adv-x="915" 
d="M461 -424q-141 0 -225.5 89.5t-85.5 242.5v33q0 11 7 17.5t17 6.5h59q25 0 25 -22v-23q1 -115 57.5 -182.5t149.5 -67.5q92 0 151.5 68t59.5 166q0 35 -9.5 65.5t-22 52.5t-37 42t-42.5 32t-51 25.5t-50.5 19.5t-51.5 17q-90 30 -148 65t-94 99q-43 72 -43 178
q0 113 53 198q62 94 172 121q6 1 6 4t-6 4q-91 35 -150 117.5t-59 185.5q0 130 90 224t232 94q137 0 224 -89.5t89 -228.5v-24q0 -11 -7 -18t-17 -7h-60q-10 0 -17 6t-7 15v20q0 101 -58 166.5t-147 65.5q-94 0 -153.5 -70t-59.5 -166t67 -155.5t191 -100.5
q153 -45 219 -131q68 -82 68 -211q0 -113 -52 -203q-60 -103 -161 -120q-13 -3 -2 -7q95 -38 149.5 -113t54.5 -183q0 -137 -91.5 -227.5t-233.5 -90.5zM459 260q135 0 194 100q35 59 35 148q0 106 -49 164q-69 86 -176 86q-61 0 -112.5 -33t-80.5 -86q-34 -53 -34 -139
q0 -90 32 -140q68 -100 191 -100z" />
    <glyph glyph-name="dieresis" unicode="&#xa8;" horiz-adv-x="630" 
d="M152 1243q-37 0 -61.5 23.5t-24.5 60.5q0 34 25 58t61 24t60 -24t24 -58q0 -37 -23.5 -60.5t-60.5 -23.5zM485 1243q-38 0 -63 23.5t-25 60.5q0 34 25 58t63 24q35 0 58.5 -24t23.5 -58q0 -37 -23.5 -60.5t-58.5 -23.5z" />
    <glyph glyph-name="copyright" unicode="&#xa9;" horiz-adv-x="1806" 
d="M901 -16q-158 0 -295.5 56t-235 153t-153 232.5t-55.5 289.5q0 208 95 376.5t264 263.5t380 95q160 0 298.5 -56t236 -153t153.5 -233.5t56 -292.5q0 -154 -56 -289.5t-153.5 -232.5t-236.5 -153t-298 -56zM901 57q190 0 343 86t238 236.5t85 335.5q0 187 -85 338
t-237.5 237t-343.5 86q-190 0 -341.5 -85.5t-236.5 -237t-85 -338.5q0 -185 85 -335.5t237 -236.5t341 -86zM905 348q-99 0 -159 56t-60 149v328q0 92 59.5 147t159.5 55q97 0 157 -54t60 -144q0 -23 -24 -23h-23q-24 0 -24 15v12q0 58 -41 93.5t-105 35.5q-67 0 -106 -35
t-39 -94v-346q0 -59 39.5 -94t105.5 -35q64 0 105 35.5t41 93.5q0 11 7 18.5t17 7.5h23q24 0 24 -8v-12q0 -90 -60 -145.5t-157 -55.5z" />
    <glyph glyph-name="ordfeminine" unicode="&#xaa;" horiz-adv-x="661" 
d="M332 1153h155q9 0 9 8v56q0 76 -43.5 121.5t-130.5 45.5q-64 0 -108 -26t-56 -70q-7 -23 -27 -20l-29 4q-26 4 -20 26q15 68 80.5 110t161.5 42q119 0 183 -61.5t64 -165.5v-441q0 -10 -6.5 -17t-17.5 -7h-27q-10 0 -17 7t-7 17v43q0 5 -3 6.5t-8 -2.5q-66 -81 -206 -81
q-99 0 -162.5 46.5t-63.5 141.5q0 100 75 158.5t204 58.5zM287 809q87 0 148 43t61 119v110q0 3 -3 6t-6 3h-149q-95 0 -153 -38.5t-58 -109.5q0 -66 44.5 -99.5t115.5 -33.5zM53 580q0 10 7 17t18 7h485q11 0 18 -7t7 -17v-37q0 -11 -7 -18t-18 -7h-485q-10 0 -17.5 7
t-7.5 18v37z" />
    <glyph glyph-name="guillemotleft" unicode="&#xab;" horiz-adv-x="1122" 
d="M575 250q9 -12 5 -21.5t-19 -9.5h-55q-20 0 -31 14l-266 326q-13 17 0 33l266 326q11 14 31 14h55q15 0 19 -9.5t-5 -21.5l-266 -319q-3 -6 0 -13zM893 250q9 -12 5 -21.5t-19 -9.5h-56q-19 0 -30 14l-267 326q-13 17 0 33l267 326q11 14 30 14h56q15 0 19 -9.5t-5 -21.5
l-266 -319q-3 -6 0 -13z" />
    <glyph glyph-name="logicalnot" unicode="&#xac;" horiz-adv-x="1032" 
d="M86 670q0 10 7 17t18 7h811q10 0 17 -7t7 -17v-295q0 -11 -7 -18t-17 -7h-50q-10 0 -17 7t-7 18v217q0 8 -8 8h-729q-11 0 -18 7t-7 18v45z" />
    <glyph glyph-name="uni00AD" unicode="&#xad;" horiz-adv-x="800" 
d="M111 596q-11 0 -18 7t-7 18v47q0 10 7 17t18 7h579q11 0 18 -7t7 -17v-47q0 -11 -7.5 -18t-17.5 -7h-579z" />
    <glyph glyph-name="registered" unicode="&#xae;" horiz-adv-x="927" 
d="M465 1464q166 0 281.5 -115.5t115.5 -279.5q0 -166 -115.5 -280.5t-281.5 -114.5q-167 0 -283 114.5t-116 280.5q0 165 116 280t283 115zM465 733q139 0 237.5 98.5t98.5 237.5q0 138 -98.5 236t-237.5 98q-141 0 -239.5 -98t-98.5 -236q0 -140 98.5 -238t239.5 -98z
M590 1141q0 -70 -55 -92q-8 -3 -5 -11l54 -125q5 -12 -0.5 -20t-18.5 -8h-10q-23 0 -29 18l-53 131q-2 6 -8 6h-39q-8 0 -8 -8v-123q0 -10 -7 -17t-18 -7h-6q-11 0 -18 7t-7 17v316q0 10 7 17t18 7h98q47 0 76 -31t29 -77zM426 1200q-8 0 -8 -8v-100q0 -9 8 -9h53
q25 0 40.5 16t15.5 42q0 27 -15.5 43t-40.5 16h-53z" />
    <glyph glyph-name="macron" unicode="&#xaf;" horiz-adv-x="536" 
d="M25 1225q-11 0 -18 7t-7 17v33q0 10 7 17.5t18 7.5h487q10 0 17.5 -7.5t7.5 -17.5v-33q0 -10 -7 -17t-18 -7h-487z" />
    <glyph glyph-name="degree" unicode="&#xb0;" horiz-adv-x="782" 
d="M391 1006q-137 0 -231 94t-94 231q0 136 94 230t231 94t231.5 -94t94.5 -230t-94.5 -230.5t-231.5 -94.5zM391 1087q103 0 173.5 70.5t70.5 173.5t-70.5 173.5t-173.5 70.5t-173.5 -70.5t-70.5 -173.5t70.5 -173.5t173.5 -70.5z" />
    <glyph glyph-name="plusminus" unicode="&#xb1;" horiz-adv-x="1032" 
d="M563 754q0 -9 8 -9h351q10 0 17 -6.5t7 -17.5v-45q0 -11 -7 -18t-17 -7h-351q-8 0 -8 -8v-342q0 -11 -7 -18t-17 -7h-45q-10 0 -17.5 7t-7.5 18v342q0 8 -8 8h-350q-11 0 -18 7.5t-7 17.5v45q0 10 7 17t18 7h350q8 0 8 9v360q0 10 7.5 17.5t17.5 7.5h45q10 0 17 -7t7 -18
v-360zM111 0q-11 0 -18 7t-7 18v45q0 10 7 17t18 7h811q10 0 17 -7t7 -17v-45q0 -11 -7 -18t-17 -7h-811z" />
    <glyph glyph-name="uni00B2" unicode="&#xb2;" horiz-adv-x="659" 
d="M100 920q-10 0 -17 7t-7 17v31q0 16 10 29q231 282 274 337q117 149 117 230q0 66 -45 105.5t-117 39.5q-71 0 -114.5 -40t-42.5 -107v-27q0 -10 -7 -17t-18 -7h-35q-10 0 -17 7t-7 17v37q1 95 68.5 153t172.5 58q111 0 177.5 -61t66.5 -156q0 -106 -115 -254
q-117 -152 -254 -318q-7 -10 5 -10h368q11 0 18 -7t7 -17v-23q0 -10 -7 -17t-18 -7h-463z" />
    <glyph glyph-name="uni00B3" unicode="&#xb3;" horiz-adv-x="659" 
d="M541 1339q30 -67 30 -161q0 -86 -28 -150q-60 -123 -215 -123q-85 0 -144.5 45t-85.5 121q-10 35 -14 80q0 25 25 25h34q25 0 25 -25q5 -41 8 -55q9 -53 50.5 -85t101.5 -32q94 0 135 78q26 54 26 121q0 81 -28 135q-41 78 -133 78q-6 0 -31 -5q-23 -6 -35 9l-14 16
q-14 17 0 35l209 246q3 3 1.5 6.5t-5.5 3.5h-336q-11 0 -18 7t-7 17v25q0 11 7 18t18 7h426q10 0 17 -7t7 -18v-33q0 -18 -10 -28l-190 -232q-3 -3 -1.5 -6.5t7.5 -3.5q114 -9 168 -109z" />
    <glyph glyph-name="acute" unicode="&#xb4;" horiz-adv-x="387" 
d="M96 1184q-13 0 -17.5 8t1.5 20l121 220q10 16 30 16h56q14 0 18.5 -8t-2.5 -21l-131 -219q-8 -16 -29 -16h-47z" />
    <glyph glyph-name="uni00B5" unicode="&#xb5;" horiz-adv-x="1114" 
d="M827 1008q0 10 7 17t18 7h57q11 0 18 -7t7 -17v-983q0 -11 -7 -18t-18 -7h-57q-10 0 -17.5 7t-7.5 18v96q0 6 -3.5 7t-6.5 -5q-89 -137 -287 -137q-138 0 -233 73q-10 7 -10 -4v-440q0 -11 -7.5 -18t-17.5 -7h-59q-11 0 -18 7t-7 18v1393q0 10 7 17t18 7h59q11 0 18 -7
t7 -17v-695q11 -106 81.5 -168.5t182.5 -62.5q126 0 201 74t75 196v656z" />
    <glyph glyph-name="paragraph" unicode="&#xb6;" horiz-adv-x="1155" 
d="M510 1434h416q10 0 17 -7t7 -18v-1794q0 -11 -7 -18t-17 -7h-37q-11 0 -18 7t-7 18v1724q0 9 -8 9h-276q-3 0 -6 -3t-3 -6v-1724q0 -11 -7 -18t-17 -7h-41q-10 0 -17.5 7t-7.5 18v889q0 8 -8 8q-168 9 -280.5 140.5t-112.5 320.5q0 127 55.5 233t154.5 167t220 61z" />
    <glyph glyph-name="periodcentered" unicode="&#xb7;" horiz-adv-x="223" 
d="M70 8q-47 0 -79 32t-32 77q0 43 33.5 74.5t77.5 31.5q45 0 78.5 -31t33.5 -75t-33 -76.5t-79 -32.5z" />
    <glyph glyph-name="cedilla" unicode="&#xb8;" horiz-adv-x="272" 
d="M23 -371q-22 6 -19 29l4 23q7 24 31 18q56 -11 96.5 6t50.5 68q18 95 -96 198q-13 11 -11 20t17 9h27q19 0 31 -10q143 -118 114 -246q-14 -58 -56 -88.5t-91 -32t-98 5.5z" />
    <glyph glyph-name="uni00B9" unicode="&#xb9;" horiz-adv-x="372" 
d="M174 1774q15 6 31 6h43q10 0 17 -7t7 -18v-811q0 -10 -7 -17t-17 -7h-35q-11 0 -18 7t-7 17v744q0 3 -2.5 6t-5.5 2l-71 -19q-12 -3 -19.5 3t-7.5 18v14q0 20 18 29z" />
    <glyph glyph-name="ordmasculine" unicode="&#xba;" horiz-adv-x="700" 
d="M352 752q-92 0 -156.5 48.5t-91.5 133.5q-18 60 -18 168q0 109 16 166q24 84 90 133t160 49q92 0 158.5 -49t89.5 -133q14 -52 14 -166q0 -116 -14 -168q-23 -84 -89.5 -133t-158.5 -49zM352 821q65 0 111.5 39t60.5 101q11 45 11 141q0 92 -9 139q-18 63 -64 101
t-112 38q-65 0 -111 -38t-61 -101q-10 -39 -10 -139q0 -89 10 -141q15 -64 61.5 -102t112.5 -38zM96 518q-10 0 -17 7t-7 18v37q0 10 7 17t17 7h508q11 0 18 -7t7 -17v-37q0 -11 -7.5 -18t-17.5 -7h-508z" />
    <glyph glyph-name="guillemotright" unicode="&#xbb;" horiz-adv-x="1122" 
d="M248 219q-15 0 -19.5 9.5t4.5 21.5l267 319q3 7 0 13l-267 319q-9 12 -4.5 21.5t19.5 9.5h55q20 0 31 -14l266 -326q13 -17 0 -33l-266 -326q-11 -14 -31 -14h-55zM565 219q-15 0 -19 9.5t5 21.5l266 319q3 7 0 13l-266 319q-9 12 -5 21.5t19 9.5h56q19 0 30 -14
l267 -326q13 -17 0 -33l-267 -326q-11 -14 -30 -14h-56z" />
    <glyph glyph-name="onequarter" unicode="&#xbc;" horiz-adv-x="1613" 
d="M272 598q0 -11 -7 -18t-17 -7h-35q-11 0 -18 7.5t-7 17.5v743q0 3 -2.5 6.5t-5.5 2.5l-71 -19q-12 -3 -19.5 3t-7.5 18v14q0 20 18 29l74 32q17 7 31 7h43q10 0 17 -7t7 -18v-811zM1104 1417q10 17 29 17h36q14 0 19 -8t-2 -21l-883 -1389q-10 -16 -29 -16h-36
q-14 0 -19 8t2 21zM1513 311q11 0 18 -7t7 -17v-27q0 -10 -7 -17t-18 -7h-34q-3 0 -6 -3t-3 -6v-202q0 -11 -7 -18t-17 -7h-35q-11 0 -18 7t-7 18v202q0 9 -8 9h-352q-11 0 -18 7t-7 17v25q0 13 7 30l245 527q8 18 29 18h33q14 0 19 -8t-1 -21l-235 -509q-2 -3 0 -7t6 -4
h274q8 0 8 8v187q0 10 7 17t18 7h35q10 0 17 -7t7 -17v-187q0 -8 9 -8h34z" />
    <glyph glyph-name="onehalf" unicode="&#xbd;" horiz-adv-x="1599" 
d="M272 598q0 -11 -7 -18t-17 -7h-35q-11 0 -18 7.5t-7 17.5v743q0 3 -2.5 6.5t-5.5 2.5l-71 -19q-12 -3 -19.5 3t-7.5 18v14q0 20 18 29l74 32q17 7 31 7h43q10 0 17 -7t7 -18v-811zM1104 1417q10 17 29 17h36q14 0 19 -8t-2 -21l-883 -1389q-10 -16 -29 -16h-36
q-14 0 -19 8t2 21zM1130 82q-7 -10 5 -10h368q11 0 18 -7t7 -18v-22q0 -11 -7 -18t-18 -7h-463q-10 0 -17 7t-7 18v30q0 16 10 29q218 265 274 338q117 149 117 229q0 66 -45 106t-117 40q-71 0 -114.5 -40.5t-42.5 -107.5v-26q0 -11 -7 -18t-18 -7h-35q-10 0 -17 7t-7 18
v36q1 95 68.5 153t172.5 58q111 0 177.5 -61t66.5 -156q0 -106 -115 -254q-106 -137 -254 -317z" />
    <glyph glyph-name="threequarters" unicode="&#xbe;" horiz-adv-x="1822" 
d="M543 702q-59 -122 -215 -122q-85 0 -144.5 44.5t-85.5 120.5q-10 35 -14 80q0 25 25 25h34q25 0 25 -25q5 -41 8 -55q9 -53 50.5 -85t101.5 -32q94 0 135 78q26 54 26 121q0 81 -28 135q-41 78 -133 78q-11 0 -31 -4q-23 -7 -35 8l-14 16q-14 17 0 35l209 246
q3 3 1.5 6.5t-5.5 3.5h-336q-11 0 -18 7t-7 18v24q0 11 7 18t18 7h426q10 0 17 -7t7 -18v-32q0 -19 -10 -29l-190 -231q-3 -3 -1.5 -7t5.5 -4q116 -9 170 -108q30 -68 30 -162q0 -86 -28 -150zM1313 1417q10 17 28 17h37q14 0 19 -8t-2 -21l-883 -1389q-10 -16 -29 -16h-37
q-14 0 -18.5 8t2.5 21zM1722 311q11 0 18 -7t7 -17v-27q0 -10 -7 -17t-18 -7h-34q-3 0 -6 -3t-3 -6v-202q0 -11 -7 -18t-17 -7h-35q-10 0 -17.5 7t-7.5 18v202q0 9 -8 9h-352q-11 0 -18 7t-7 17v25q0 13 7 30l245 527q8 18 29 18h33q14 0 19 -8t-1 -21l-235 -509q-2 -3 0 -7
t6 -4h274q8 0 8 8v187q0 10 7 17t18 7h35q11 0 17.5 -7t6.5 -17v-187q0 -8 9 -8h34z" />
    <glyph glyph-name="questiondown" unicode="&#xbf;" horiz-adv-x="911" 
d="M485 1018q45 0 77 -31t32 -74t-32.5 -73.5t-76.5 -30.5q-43 0 -75.5 31t-32.5 73t32.5 73.5t75.5 31.5zM524 625q10 0 17.5 -7.5t7.5 -17.5v-129q0 -53 -19 -97t-49.5 -76t-67.5 -62t-74 -61t-67.5 -65.5t-49.5 -83t-19 -106.5q0 -112 70 -180t184 -68q116 0 187 69
t71 181v66q0 24 24 24l60 -2q10 0 17 -7.5t7 -18.5v-62q0 -157 -102 -253.5t-266 -96.5q-163 0 -262 95.5t-99 254.5q0 69 19 127t49 97.5t66.5 73t73 62t66.5 56t49 63t19 76.5v123q0 10 7 17.5t18 7.5h63z" />
    <glyph glyph-name="Agrave" unicode="&#xc0;" horiz-adv-x="1208" 
d="M631 1614q6 -12 1 -20.5t-18 -8.5h-47q-19 0 -28 17l-131 219q-7 13 -2.5 20.5t18.5 7.5h55q21 0 31 -16zM1047 0q-20 0 -27 20l-88 269q-2 6 -8 6h-639q-7 0 -9 -6l-86 -269q-7 -20 -26 -20h-66q-12 0 -18 8t-2 21l454 1384q7 21 27 21h88q20 0 27 -21l456 -1384
q4 -13 -2 -21t-18 -8h-63zM309 395q-2 -3 1 -6.5t7 -3.5h574q4 0 7 3.5t1 6.5l-291 897q-2 4 -6 4t-6 -4z" />
    <glyph glyph-name="Aacute" unicode="&#xc1;" horiz-adv-x="1208" 
d="M741 1849q14 0 19 -7.5t-2 -20.5l-131 -219q-9 -17 -29 -17h-47q-13 0 -17.5 8.5t1.5 20.5l120 219q10 16 31 16h55zM1047 0q-20 0 -27 20l-88 269q-2 6 -8 6h-639q-7 0 -9 -6l-86 -269q-7 -20 -26 -20h-66q-12 0 -18 8t-2 21l454 1384q7 21 27 21h88q20 0 27 -21
l456 -1384q4 -13 -2 -21t-18 -8h-63zM309 395q-2 -3 1 -6.5t7 -3.5h574q4 0 7 3.5t1 6.5l-291 897q-2 4 -6 4t-6 -4z" />
    <glyph glyph-name="Acircumflex" unicode="&#xc2;" horiz-adv-x="1208" 
d="M608 1759q-2 3 -6 3t-6 -3l-133 -176q-11 -14 -31 -14h-45q-15 0 -19 9t5 21l164 213q12 15 30 15h64q19 0 31 -15l165 -213q9 -12 4 -21t-20 -9h-43q-18 0 -29 14zM1047 0q-20 0 -27 20l-88 269q-2 6 -8 6h-639q-7 0 -9 -6l-86 -269q-7 -20 -26 -20h-66q-12 0 -18 8
t-2 21l454 1384q7 21 27 21h88q20 0 27 -21l456 -1384q4 -13 -2 -21t-18 -8h-63zM309 395q-2 -3 1 -6.5t7 -3.5h574q4 0 7 3.5t1 6.5l-291 897q-2 4 -6 4t-6 -4z" />
    <glyph glyph-name="Atilde" unicode="&#xc3;" horiz-adv-x="1208" 
d="M514 1714q-32 0 -54.5 -11t-47.5 -42q-16 -19 -35 -6l-19 12q-21 15 -8 35q59 94 158 94q24 0 48.5 -8.5t35.5 -14.5t39 -24q3 -2 19 -12t22 -13t18.5 -9.5t22.5 -8.5t20 -2q61 0 101 59q17 20 34 9l19 -13q20 -13 10 -33q-31 -53 -77 -78.5t-89 -25.5q-53 0 -123 49
q-21 16 -32 23t-27.5 13.5t-34.5 6.5zM1047 0q-20 0 -27 20l-88 269q-2 6 -8 6h-639q-7 0 -9 -6l-86 -269q-7 -20 -26 -20h-66q-12 0 -18 8t-2 21l454 1384q7 21 27 21h88q20 0 27 -21l456 -1384q4 -13 -2 -21t-18 -8h-63zM309 395q-2 -3 1 -6.5t7 -3.5h574q4 0 7 3.5t1 6.5
l-291 897q-2 4 -6 4t-6 -4z" />
    <glyph glyph-name="Adieresis" unicode="&#xc4;" horiz-adv-x="1208" 
d="M436 1645q-37 0 -61.5 23.5t-24.5 60.5q0 34 24.5 57.5t61.5 23.5q36 0 60 -23.5t24 -57.5q0 -37 -23.5 -60.5t-60.5 -23.5zM770 1645q-38 0 -63 23.5t-25 60.5q0 34 25 57.5t63 23.5q35 0 58.5 -23.5t23.5 -57.5q0 -37 -23.5 -60.5t-58.5 -23.5zM1047 0q-20 0 -27 20
l-88 269q-2 6 -8 6h-639q-7 0 -9 -6l-86 -269q-7 -20 -26 -20h-66q-12 0 -18 8t-2 21l454 1384q7 21 27 21h88q20 0 27 -21l456 -1384q4 -13 -2 -21t-18 -8h-63zM309 395q-2 -3 1 -6.5t7 -3.5h574q4 0 7 3.5t1 6.5l-291 897q-2 4 -6 4t-6 -4z" />
    <glyph glyph-name="Aring" unicode="&#xc5;" horiz-adv-x="1208" 
d="M602 1571q-88 0 -148.5 60.5t-60.5 146.5t60.5 145t148.5 59t149.5 -59t61.5 -145t-61.5 -146.5t-149.5 -60.5zM602 1919q-59 0 -100 -40.5t-41 -100.5t41 -101t100 -41t101 41t42 101q0 59 -42 100t-101 41zM1047 0q-20 0 -27 20l-88 269q-2 6 -8 6h-639q-7 0 -9 -6
l-86 -269q-7 -20 -26 -20h-66q-12 0 -18 8t-2 21l454 1384q7 21 27 21h88q20 0 27 -21l456 -1384q4 -13 -2 -21t-18 -8h-63zM309 395q-2 -3 1 -6.5t7 -3.5h574q4 0 7 3.5t1 6.5l-291 897q-2 4 -6 4t-6 -4z" />
    <glyph glyph-name="AE" unicode="&#xc6;" horiz-adv-x="1865" 
d="M1737 1362q0 -10 -7.5 -17.5t-17.5 -7.5h-704q-9 0 -9 -8v-553q0 -8 9 -8h479q10 0 17 -7t7 -18v-47q0 -10 -6.5 -17t-17.5 -7h-479q-9 0 -9 -8v-560q0 -8 9 -8h704q11 0 18 -7t7 -17v-47q0 -11 -7.5 -18t-17.5 -7h-797q-10 0 -17 7t-7 18v262q0 8 -8 8h-531q-7 0 -10 -6
l-141 -271q-9 -18 -31 -18h-68q-13 0 -17.5 8.5t1.5 20.5l737 1386q9 19 31 19h858q10 0 17.5 -7t7.5 -18v-47zM401 395q-3 -10 5 -10h477q8 0 8 8v910q0 4 -1.5 5.5t-4 0.5t-4.5 -4z" />
    <glyph glyph-name="Ccedilla" unicode="&#xc7;" horiz-adv-x="1243" 
d="M1098 1006q0 -5 -7.5 -10t-17.5 -5l-59 -2q-25 0 -25 12v13q0 154 -98.5 247t-259.5 93q-163 0 -262 -93t-99 -247v-594q0 -154 99 -248t262 -94q161 0 259.5 94t98.5 248q0 22 25 22l59 -2q25 0 25 -10v-10q0 -196 -129 -317t-338 -121h-10q-5 0 -7 -4t2 -7
q132 -112 103 -233q-14 -58 -56.5 -88.5t-91.5 -32t-98 5.5q-21 6 -18 29l4 22q7 25 30 19q56 -11 97 6t51 68q18 95 -96 198l-35 29h2q-160 34 -253 149t-93 283v584q0 198 128.5 319t340.5 121q209 0 338 -119.5t129 -314.5v-10z" />
    <glyph glyph-name="Egrave" unicode="&#xc8;" horiz-adv-x="1251" 
d="M684 1636q6 -12 1.5 -20t-17.5 -8h-47q-21 0 -29 16l-131 219q-7 13 -2.5 21t18.5 8h55q21 0 31 -17zM1122 1362q0 -11 -7 -18t-17 -7h-772q-9 0 -9 -8v-553q0 -8 9 -8h546q10 0 17.5 -7t7.5 -18v-47q0 -10 -7 -17t-18 -7h-546q-9 0 -9 -8v-560q0 -8 9 -8h772q10 0 17 -7
t7 -17v-47q0 -11 -7 -18t-17 -7h-865q-10 0 -17 7t-7 18v1384q0 11 7 18t17 7h865q10 0 17 -7t7 -18v-47z" />
    <glyph glyph-name="Eacute" unicode="&#xc9;" horiz-adv-x="1251" 
d="M795 1872q14 0 18.5 -8t-2.5 -21l-131 -219q-8 -16 -29 -16h-47q-13 0 -17.5 8t1.5 20l121 219q10 17 30 17h56zM1122 1362q0 -11 -7 -18t-17 -7h-772q-9 0 -9 -8v-553q0 -8 9 -8h546q10 0 17.5 -7t7.5 -18v-47q0 -10 -7 -17t-18 -7h-546q-9 0 -9 -8v-560q0 -8 9 -8h772
q10 0 17 -7t7 -17v-47q0 -11 -7 -18t-17 -7h-865q-10 0 -17 7t-7 18v1384q0 11 7 18t17 7h865q10 0 17 -7t7 -18v-47z" />
    <glyph glyph-name="Ecircumflex" unicode="&#xca;" horiz-adv-x="1251" 
d="M662 1782q-2 3 -7 3t-6 -3l-133 -176q-12 -15 -31 -15h-45q-15 0 -19 9.5t5 21.5l164 213q11 14 31 14h63q20 0 31 -14l166 -213q9 -12 3.5 -21.5t-20.5 -9.5h-43q-16 0 -28 15zM1122 1362q0 -11 -7 -18t-17 -7h-772q-9 0 -9 -8v-553q0 -8 9 -8h546q10 0 17.5 -7t7.5 -18
v-47q0 -10 -7 -17t-18 -7h-546q-9 0 -9 -8v-560q0 -8 9 -8h772q10 0 17 -7t7 -17v-47q0 -11 -7 -18t-17 -7h-865q-10 0 -17 7t-7 18v1384q0 11 7 18t17 7h865q10 0 17 -7t7 -18v-47z" />
    <glyph glyph-name="Edieresis" unicode="&#xcb;" horiz-adv-x="1251" 
d="M489 1667q-37 0 -61.5 23.5t-24.5 60.5q0 34 25 58t61 24t60 -24t24 -58q0 -37 -23.5 -60.5t-60.5 -23.5zM823 1667q-38 0 -63 23.5t-25 60.5q0 34 25 58t63 24q35 0 58.5 -24t23.5 -58q0 -37 -23.5 -60.5t-58.5 -23.5zM1122 1362q0 -11 -7 -18t-17 -7h-772q-9 0 -9 -8
v-553q0 -8 9 -8h546q10 0 17.5 -7t7.5 -18v-47q0 -10 -7 -17t-18 -7h-546q-9 0 -9 -8v-560q0 -8 9 -8h772q10 0 17 -7t7 -17v-47q0 -11 -7 -18t-17 -7h-865q-10 0 -17 7t-7 18v1384q0 11 7 18t17 7h865q10 0 17 -7t7 -18v-47z" />
    <glyph glyph-name="Igrave" unicode="&#xcc;" horiz-adv-x="528" 
d="M293 1636q6 -12 1 -20t-18 -8h-47q-20 0 -28 16l-131 219q-7 13 -2.5 21t18.5 8h55q21 0 31 -17zM233 0q-10 0 -17 7t-7 18v1384q0 11 7 18t17 7h60q10 0 17 -7t7 -18v-1384q0 -11 -7 -18t-17 -7h-60z" />
    <glyph glyph-name="Iacute" unicode="&#xcd;" horiz-adv-x="528" 
d="M213 1608q-13 0 -17.5 8t1.5 20l120 219q10 17 31 17h55q14 0 19 -8t-2 -21l-131 -219q-8 -16 -29 -16h-47zM233 0q-10 0 -17 7t-7 18v1384q0 11 7 18t17 7h60q10 0 17 -7t7 -18v-1384q0 -11 -7 -18t-17 -7h-60z" />
    <glyph glyph-name="Icircumflex" unicode="&#xce;" horiz-adv-x="528" 
d="M49 1591q-15 0 -19 9.5t5 21.5l164 213q11 14 30 14h64q20 0 31 -14l165 -213q9 -12 4 -21.5t-20 -9.5h-43q-17 0 -29 15l-131 176q-2 3 -6 3t-6 -3l-133 -176q-12 -15 -31 -15h-45zM233 0q-10 0 -17 7t-7 18v1384q0 11 7 18t17 7h60q10 0 17 -7t7 -18v-1384
q0 -11 -7 -18t-17 -7h-60z" />
    <glyph glyph-name="Idieresis" unicode="&#xcf;" horiz-adv-x="528" 
d="M98 1667q-37 0 -61.5 23.5t-24.5 60.5q0 34 25 58t61 24t60 -24t24 -58q0 -37 -23.5 -60.5t-60.5 -23.5zM432 1667q-38 0 -63 23.5t-25 60.5q0 34 25 58t63 24q35 0 58.5 -24t23.5 -58q0 -37 -23.5 -60.5t-58.5 -23.5zM233 0q-10 0 -17 7t-7 18v1384q0 11 7 18t17 7h60
q10 0 17 -7t7 -18v-1384q0 -11 -7 -18t-17 -7h-60z" />
    <glyph glyph-name="Eth" unicode="&#xd0;" horiz-adv-x="1406" 
d="M846 1434q197 0 311.5 -103.5t114.5 -281.5v-664q0 -178 -114.5 -281.5t-311.5 -103.5h-471q-11 0 -18 7t-7 18v673q0 9 -8 9h-109q-11 0 -17.5 6.5t-6.5 17.5v33q0 10 6.5 17t17.5 7h109q8 0 8 9v612q0 11 7 18t18 7h471zM1163 397v639q0 140 -83 220.5t-228 80.5h-385
q-8 0 -8 -8v-532q0 -9 8 -9h258q11 0 18 -7t7 -17v-33q0 -10 -7 -17t-18 -7h-258q-8 0 -8 -9v-594q0 -8 8 -8h385q143 0 226.5 81t84.5 220z" />
    <glyph glyph-name="Ntilde" unicode="&#xd1;" horiz-adv-x="1386" 
d="M821 1645q-53 0 -123 49q-21 16 -32 23t-27.5 13.5t-34.5 6.5q-32 0 -54.5 -11.5t-47.5 -42.5q-16 -19 -35 -6l-18 13q-21 15 -9 34q60 95 158 95q24 0 48.5 -8.5t35.5 -14.5t39 -24q5 -3 19 -12t21.5 -13t19.5 -10t22 -8.5t20 -2.5q61 0 101 60q16 20 34 8l19 -12
q23 -15 2 -45q-31 -47 -74.5 -69.5t-83.5 -22.5zM233 0q-10 0 -17 7t-7 18v1384q0 11 7 18t17 7h62q21 0 29 -17l735 -1192q3 -6 6.5 -5t3.5 7v1182q0 11 7.5 18t17.5 7h59q11 0 18 -7t7 -18v-1384q0 -11 -7 -18t-18 -7h-61q-21 0 -29 16l-735 1194q-3 6 -7 5t-4 -7v-1183
q0 -11 -7 -18t-17 -7h-60z" />
    <glyph glyph-name="Ograve" unicode="&#xd2;" horiz-adv-x="1273" 
d="M664 1630q6 -12 1 -20t-18 -8h-47q-21 0 -29 16l-131 219q-7 13 -2 21t19 8h55q21 0 31 -17zM635 -16q-214 0 -343.5 128t-129.5 337v536q0 209 129.5 337t343.5 128q215 0 346 -128t131 -337v-536q0 -209 -131 -337t-346 -128zM635 78q166 0 267.5 100.5t101.5 265.5
v543q0 164 -101.5 265.5t-267.5 101.5q-164 0 -264.5 -101.5t-100.5 -265.5v-543q0 -166 100 -266t265 -100z" />
    <glyph glyph-name="Oacute" unicode="&#xd3;" horiz-adv-x="1273" 
d="M584 1602q-13 0 -18 8t1 20l121 219q10 17 31 17h55q14 0 19 -8t-2 -21l-132 -219q-8 -16 -28 -16h-47zM635 -16q-214 0 -343.5 128t-129.5 337v536q0 209 129.5 337t343.5 128q215 0 346 -128t131 -337v-536q0 -209 -131 -337t-346 -128zM635 78q166 0 267.5 100.5
t101.5 265.5v543q0 164 -101.5 265.5t-267.5 101.5q-164 0 -264.5 -101.5t-100.5 -265.5v-543q0 -166 100 -266t265 -100z" />
    <glyph glyph-name="Ocircumflex" unicode="&#xd4;" horiz-adv-x="1273" 
d="M420 1585q-15 0 -19 9.5t5 21.5l163 213q11 14 31 14h64q19 0 30 -14l166 -213q9 -12 4 -21.5t-20 -9.5h-43q-18 0 -29 14l-131 177q-1 3 -6 3t-6 -3l-133 -177q-11 -14 -31 -14h-45zM635 -16q-214 0 -343.5 128t-129.5 337v536q0 209 129.5 337t343.5 128
q215 0 346 -128t131 -337v-536q0 -209 -131 -337t-346 -128zM635 78q166 0 267.5 100.5t101.5 265.5v543q0 164 -101.5 265.5t-267.5 101.5q-164 0 -264.5 -101.5t-100.5 -265.5v-543q0 -166 100 -266t265 -100z" />
    <glyph glyph-name="Otilde" unicode="&#xd5;" horiz-adv-x="1273" 
d="M764 1638q-51 0 -123 50q-21 16 -32 23t-27.5 13.5t-34.5 6.5q-32 0 -55 -11.5t-48 -42.5q-16 -19 -34 -6l-19 12q-21 15 -8 35q59 94 158 94q24 0 48.5 -8.5t35.5 -14.5t39 -24q3 -2 19 -12t22 -13t18.5 -9.5t22.5 -8.5t20 -2q60 0 100 60q17 20 35 8l19 -12
q23 -15 2 -45q-31 -47 -74.5 -70t-83.5 -23zM635 -16q-214 0 -343.5 128t-129.5 337v536q0 209 129.5 337t343.5 128q215 0 346 -128t131 -337v-536q0 -209 -131 -337t-346 -128zM635 78q166 0 267.5 100.5t101.5 265.5v543q0 164 -101.5 265.5t-267.5 101.5
q-164 0 -264.5 -101.5t-100.5 -265.5v-543q0 -166 100 -266t265 -100z" />
    <glyph glyph-name="Odieresis" unicode="&#xd6;" horiz-adv-x="1273" 
d="M469 1661q-37 0 -61.5 23.5t-24.5 60.5q0 34 25 58t61 24t60 -24t24 -58q0 -37 -23.5 -60.5t-60.5 -23.5zM803 1661q-38 0 -63 23.5t-25 60.5q0 34 25 58t63 24q35 0 58.5 -24t23.5 -58q0 -37 -23.5 -60.5t-58.5 -23.5zM635 -16q-214 0 -343.5 128t-129.5 337v536
q0 209 129.5 337t343.5 128q215 0 346 -128t131 -337v-536q0 -209 -131 -337t-346 -128zM635 78q166 0 267.5 100.5t101.5 265.5v543q0 164 -101.5 265.5t-267.5 101.5q-164 0 -264.5 -101.5t-100.5 -265.5v-543q0 -166 100 -266t265 -100z" />
    <glyph glyph-name="multiply" unicode="&#xd7;" horiz-adv-x="851" 
d="M750 942q16 -16 0 -33l-248 -247q-6 -6 0 -13l241 -241q17 -18 0 -35l-32 -33q-17 -16 -33 0l-242 242q-6 6 -12 0l-248 -248q-18 -18 -35 0l-32 33q-16 16 0 32l247 248q6 6 0 12l-256 256q-16 17 0 33l35 35q17 17 33 0l256 -256q6 -6 12 0l248 248q16 17 33 0z" />
    <glyph glyph-name="Oslash" unicode="&#xd8;" horiz-adv-x="1280" 
d="M942 1368q-2 -7 4 -10q83 -62 127.5 -157.5t44.5 -215.5v-536q0 -209 -131 -337t-346 -128q-167 0 -285 82q-8 3 -12 -5l-53 -116q-8 -19 -29 -19h-39q-14 0 -20 8t0 21l78 166q3 5 -2 10q-111 123 -111 318v536q0 209 129.5 337t343.5 128q126 0 219 -43q10 -3 12 4
l41 92q8 19 29 19h39q14 0 19 -8t-1 -21zM276 444q0 -109 50 -198q7 -10 10 0l485 1059q3 10 -4 12q-75 37 -176 37q-164 0 -264.5 -101.5t-100.5 -265.5v-543zM1010 444v543q0 171 -107 270q-8 5 -12 -2l-498 -1085q-2 -7 4 -10q94 -82 244 -82q166 0 267.5 100.5
t101.5 265.5z" />
    <glyph glyph-name="Ugrave" unicode="&#xd9;" horiz-adv-x="1337" 
d="M696 1638q6 -12 1.5 -20t-17.5 -8h-47q-21 0 -29 16l-131 219q-7 13 -2.5 21t18.5 8h56q20 0 30 -16zM668 -16q-214 0 -344.5 124t-130.5 326v975q0 11 7 18t17 7h59q10 0 17.5 -7t7.5 -18v-979q0 -157 101.5 -253.5t265.5 -96.5q165 0 265.5 96.5t100.5 253.5v979
q0 11 7 18t18 7h59q10 0 17.5 -7t7.5 -18v-975q0 -203 -130 -326.5t-345 -123.5z" />
    <glyph glyph-name="Uacute" unicode="&#xda;" horiz-adv-x="1337" 
d="M616 1610q-13 0 -17.5 8t1.5 20l121 220q10 16 31 16h55q14 0 18.5 -8t-2.5 -21l-131 -219q-8 -16 -28 -16h-48zM668 -16q-214 0 -344.5 124t-130.5 326v975q0 11 7 18t17 7h59q10 0 17.5 -7t7.5 -18v-979q0 -157 101.5 -253.5t265.5 -96.5q165 0 265.5 96.5t100.5 253.5
v979q0 11 7 18t18 7h59q10 0 17.5 -7t7.5 -18v-975q0 -203 -130 -326.5t-345 -123.5z" />
    <glyph glyph-name="Ucircumflex" unicode="&#xdb;" horiz-adv-x="1337" 
d="M453 1593q-15 0 -19.5 9.5t4.5 21.5l164 213q11 14 31 14h63q20 0 31 -14l166 -213q9 -12 4 -21.5t-20 -9.5h-43q-17 0 -29 15l-131 176q-2 3 -6 3t-6 -3l-134 -176q-12 -15 -30 -15h-45zM668 -16q-214 0 -344.5 124t-130.5 326v975q0 11 7 18t17 7h59q10 0 17.5 -7
t7.5 -18v-979q0 -157 101.5 -253.5t265.5 -96.5q165 0 265.5 96.5t100.5 253.5v979q0 11 7 18t18 7h59q10 0 17.5 -7t7.5 -18v-975q0 -203 -130 -326.5t-345 -123.5z" />
    <glyph glyph-name="Udieresis" unicode="&#xdc;" horiz-adv-x="1337" 
d="M502 1669q-37 0 -61.5 23.5t-24.5 60.5q0 34 25 58t61 24t60 -24t24 -58q0 -37 -23.5 -60.5t-60.5 -23.5zM836 1669q-38 0 -63 23.5t-25 60.5q0 34 25 58t63 24q35 0 58.5 -24t23.5 -58q0 -37 -23.5 -60.5t-58.5 -23.5zM668 -16q-214 0 -344.5 124t-130.5 326v975
q0 11 7 18t17 7h59q10 0 17.5 -7t7.5 -18v-979q0 -157 101.5 -253.5t265.5 -96.5q165 0 265.5 96.5t100.5 253.5v979q0 11 7 18t18 7h59q10 0 17.5 -7t7.5 -18v-975q0 -203 -130 -326.5t-345 -123.5z" />
    <glyph glyph-name="Yacute" unicode="&#xdd;" horiz-adv-x="1134" 
d="M516 1583q-13 0 -17.5 8.5t1.5 20.5l121 219q10 16 30 16h56q14 0 18.5 -7.5t-2.5 -20.5l-131 -220q-8 -16 -29 -16h-47zM539 0q-11 0 -18 7t-7 18v626q0 9 -2 11l-426 743q-7 13 -1.5 21t19.5 8h60q21 0 31 -17l366 -641q1 -3 6 -3t6 3l367 641q10 17 31 17h59
q14 0 20 -8t-1 -21l-426 -743q-2 -2 -2 -11v-626q0 -11 -7.5 -18t-17.5 -7h-57z" />
    <glyph glyph-name="Thorn" unicode="&#xde;" horiz-adv-x="1155" 
d="M688 1104q173 0 280 -108t107 -281t-109 -279t-282 -106h-373q-8 0 -8 -8v-297q0 -11 -7 -18t-17 -7h-60q-10 0 -17 7t-7 18v1384q0 11 7 18t17 7h60q10 0 17 -7t7 -18v-297q0 -8 8 -8h377zM678 422q130 0 209.5 80t79.5 211q0 134 -79.5 214.5t-209.5 80.5h-367
q-8 0 -8 -9v-569q0 -8 8 -8h367z" />
    <glyph glyph-name="germandbls" unicode="&#xdf;" horiz-adv-x="1196" 
d="M203 0q-11 0 -18 7t-7 18v1034q1 121 55 210.5t148 136t215 46.5q208 0 322.5 -97.5t119.5 -275.5q1 -115 -48 -196.5t-140 -116.5q-3 -1 -4 -2.5t0 -3t4 -2.5q95 -39 148 -134.5t53 -230.5q0 -187 -120.5 -290t-355.5 -103h-155q-10 0 -17.5 7t-7.5 18v45q0 10 7 17
t18 7h166q178 0 267 79.5t89 227.5q0 307 -309 316h-156q-11 0 -17.5 6.5t-6.5 17.5v39q0 11 7 18t17 7h158q150 0 224 71t71 201q-5 135 -86 208t-242 73q-134 0 -224 -78.5t-91 -214.5v-1040q0 -11 -7.5 -18t-17.5 -7h-59z" />
    <glyph glyph-name="agrave" unicode="&#xe0;" horiz-adv-x="1036" 
d="M553 1229q6 -12 1.5 -20.5t-17.5 -8.5h-48q-19 0 -28 17l-131 219q-7 14 -2.5 21t18.5 7h55q21 0 31 -16zM520 1049q180 0 274.5 -93t94.5 -251v-680q0 -11 -7.5 -18t-17.5 -7h-59q-11 0 -18 7t-7 18v88q0 5 -3 6.5t-7 -2.5q-54 -65 -141.5 -99t-188.5 -34q-67 0 -125 16
t-106.5 49t-76.5 90.5t-28 134.5q0 153 112.5 240.5t309.5 87.5h246q8 0 8 8v92q0 115 -63.5 182.5t-198.5 67.5q-104 0 -171.5 -41.5t-84.5 -113.5q-7 -24 -29 -21l-63 8q-26 4 -23 23q20 109 121 175.5t252 66.5zM461 78q130 0 224.5 63t94.5 176v187q0 8 -8 8h-233
q-147 0 -236.5 -61.5t-89.5 -169.5q0 -100 69.5 -151.5t178.5 -51.5z" />
    <glyph glyph-name="aacute" unicode="&#xe1;" horiz-adv-x="1036" 
d="M664 1464q14 0 18.5 -7t-2.5 -21l-131 -219q-9 -17 -29 -17h-47q-13 0 -17.5 8.5t1.5 20.5l121 219q10 16 30 16h56zM520 1049q180 0 274.5 -93t94.5 -251v-680q0 -11 -7.5 -18t-17.5 -7h-59q-11 0 -18 7t-7 18v88q0 5 -3 6.5t-7 -2.5q-54 -65 -141.5 -99t-188.5 -34
q-67 0 -125 16t-106.5 49t-76.5 90.5t-28 134.5q0 153 112.5 240.5t309.5 87.5h246q8 0 8 8v92q0 115 -63.5 182.5t-198.5 67.5q-104 0 -171.5 -41.5t-84.5 -113.5q-7 -24 -29 -21l-63 8q-26 4 -23 23q20 109 121 175.5t252 66.5zM461 78q130 0 224.5 63t94.5 176v187
q0 8 -8 8h-233q-147 0 -236.5 -61.5t-89.5 -169.5q0 -100 69.5 -151.5t178.5 -51.5z" />
    <glyph glyph-name="acircumflex" unicode="&#xe2;" horiz-adv-x="1036" 
d="M530 1374q-2 3 -6 3t-6 -3l-133 -176q-11 -14 -31 -14h-45q-15 0 -19 9t5 21l164 213q12 15 30 15h64q19 0 31 -15l166 -213q9 -12 3.5 -21t-20.5 -9h-43q-17 0 -28 14zM520 1049q180 0 274.5 -93t94.5 -251v-680q0 -11 -7.5 -18t-17.5 -7h-59q-11 0 -18 7t-7 18v88
q0 5 -3 6.5t-7 -2.5q-54 -65 -141.5 -99t-188.5 -34q-67 0 -125 16t-106.5 49t-76.5 90.5t-28 134.5q0 153 112.5 240.5t309.5 87.5h246q8 0 8 8v92q0 115 -63.5 182.5t-198.5 67.5q-104 0 -171.5 -41.5t-84.5 -113.5q-7 -24 -29 -21l-63 8q-26 4 -23 23q20 109 121 175.5
t252 66.5zM461 78q130 0 224.5 63t94.5 176v187q0 8 -8 8h-233q-147 0 -236.5 -61.5t-89.5 -169.5q0 -100 69.5 -151.5t178.5 -51.5z" />
    <glyph glyph-name="atilde" unicode="&#xe3;" horiz-adv-x="1036" 
d="M436 1329q-32 0 -54.5 -11t-47.5 -42q-16 -19 -35 -6l-18 12q-22 16 -9 35q59 94 158 94q24 0 48.5 -8.5t35.5 -14.5t39 -24q3 -2 19 -12t22 -13t18.5 -9.5t22.5 -8.5t20 -2q61 0 101 59q17 20 35 8l18 -12q20 -13 10 -33q-31 -53 -77 -78.5t-89 -25.5q-53 0 -123 49
q-21 16 -32 23t-27.5 13.5t-34.5 6.5zM520 1049q180 0 274.5 -93t94.5 -251v-680q0 -11 -7.5 -18t-17.5 -7h-59q-11 0 -18 7t-7 18v88q0 5 -3 6.5t-7 -2.5q-54 -65 -141.5 -99t-188.5 -34q-67 0 -125 16t-106.5 49t-76.5 90.5t-28 134.5q0 153 112.5 240.5t309.5 87.5h246
q8 0 8 8v92q0 115 -63.5 182.5t-198.5 67.5q-104 0 -171.5 -41.5t-84.5 -113.5q-7 -24 -29 -21l-63 8q-26 4 -23 23q20 109 121 175.5t252 66.5zM461 78q130 0 224.5 63t94.5 176v187q0 8 -8 8h-233q-147 0 -236.5 -61.5t-89.5 -169.5q0 -100 69.5 -151.5t178.5 -51.5z" />
    <glyph glyph-name="adieresis" unicode="&#xe4;" horiz-adv-x="1036" 
d="M358 1260q-37 0 -61.5 23.5t-24.5 59.5q0 34 25 58t61 24t60 -24t24 -58q0 -37 -23.5 -60t-60.5 -23zM692 1260q-38 0 -63 23t-25 60q0 34 25 58t63 24q35 0 58.5 -24t23.5 -58q0 -37 -23 -60t-59 -23zM520 1049q180 0 274.5 -93t94.5 -251v-680q0 -11 -7.5 -18t-17.5 -7
h-59q-11 0 -18 7t-7 18v88q0 5 -3 6.5t-7 -2.5q-54 -65 -141.5 -99t-188.5 -34q-67 0 -125 16t-106.5 49t-76.5 90.5t-28 134.5q0 153 112.5 240.5t309.5 87.5h246q8 0 8 8v92q0 115 -63.5 182.5t-198.5 67.5q-104 0 -171.5 -41.5t-84.5 -113.5q-7 -24 -29 -21l-63 8
q-26 4 -23 23q20 109 121 175.5t252 66.5zM461 78q130 0 224.5 63t94.5 176v187q0 8 -8 8h-233q-147 0 -236.5 -61.5t-89.5 -169.5q0 -100 69.5 -151.5t178.5 -51.5z" />
    <glyph glyph-name="aring" unicode="&#xe5;" horiz-adv-x="1036" 
d="M524 1186q-88 0 -148.5 60.5t-60.5 146.5t60.5 145t148.5 59t149.5 -59t61.5 -145t-61.5 -146.5t-149.5 -60.5zM524 1534q-59 0 -100 -40.5t-41 -100.5t41 -101t100 -41t101.5 41.5t42.5 100.5t-42.5 100t-101.5 41zM520 1049q180 0 274.5 -93t94.5 -251v-680
q0 -11 -7.5 -18t-17.5 -7h-59q-11 0 -18 7t-7 18v88q0 5 -3 6.5t-7 -2.5q-54 -65 -141.5 -99t-188.5 -34q-67 0 -125 16t-106.5 49t-76.5 90.5t-28 134.5q0 153 112.5 240.5t309.5 87.5h246q8 0 8 8v92q0 115 -63.5 182.5t-198.5 67.5q-104 0 -171.5 -41.5t-84.5 -113.5
q-7 -24 -29 -21l-63 8q-26 4 -23 23q20 109 121 175.5t252 66.5zM461 78q130 0 224.5 63t94.5 176v187q0 8 -8 8h-233q-147 0 -236.5 -61.5t-89.5 -169.5q0 -100 69.5 -151.5t178.5 -51.5z" />
    <glyph glyph-name="ae" unicode="&#xe6;" horiz-adv-x="1701" 
d="M455 -16q-55 0 -105 9t-95.5 30.5t-78.5 53.5t-52.5 81t-19.5 110q0 149 112 232.5t310 83.5h246q8 0 8 8v104q0 116 -65 186t-201 70q-101 0 -169 -41.5t-87 -113.5q-6 -22 -29 -19l-59 8q-26 4 -20 27q22 105 121.5 170.5t244.5 65.5q124 0 208 -51.5t118 -137.5
q3 -10 10 0q38 82 125 135.5t197 53.5q138 0 240.5 -76.5t133.5 -202.5q19 -72 19 -254q0 -27 -25 -27h-643q-8 0 -8 -8q0 -103 2 -162q3 -113 86.5 -173t208.5 -60q97 0 166 43.5t104 120.5q9 21 31 12l39 -16q24 -10 14 -33q-38 -102 -135.5 -165.5t-230.5 -63.5
q-119 0 -208 48t-126 134q-2 5 -4 5.5t-4 -3.5q-40 -88 -144 -136t-235 -48zM889 592q0 -8 8 -8h553q8 0 8 8q0 102 -8 141q-21 97 -96 158t-183 61q-107 0 -180.5 -61t-91.5 -158q-6 -33 -10 -141zM465 74q81 0 150.5 24t117 80t47.5 135v168q0 8 -8 8h-235
q-148 0 -236 -54.5t-88 -158.5q0 -98 70 -150t182 -52z" />
    <glyph glyph-name="ccedilla" unicode="&#xe7;" horiz-adv-x="1056" 
d="M838 285l2 8q3 22 28 18l56 -6q25 -4 22 -29l-8 -32q-26 -108 -121 -179t-229 -81q-13 0 -4 -9q131 -114 102 -235q-14 -58 -56.5 -88.5t-91.5 -32t-98 5.5q-21 6 -18 29l4 22q7 25 31 19q56 -11 96.5 6t50.5 68q11 55 -23.5 111.5t-97.5 105.5q-2 4 -10 4
q-115 20 -194.5 92t-108.5 180q-27 102 -27 256q0 148 27 254q33 125 135.5 201t247.5 76t250.5 -74t134.5 -184q8 -23 12 -54q3 -22 -22 -26l-58 -9q-21 -3 -28 23q0 9 -4 25q-19 86 -97 144t-188 58q-113 0 -187.5 -59.5t-95.5 -157.5q-18 -77 -18 -219q0 -143 18 -217
q21 -100 95.5 -159.5t187.5 -59.5q112 0 191 58.5t94 146.5z" />
    <glyph glyph-name="egrave" unicode="&#xe8;" horiz-adv-x="1087" 
d="M571 1229q6 -12 1.5 -20.5t-17.5 -8.5h-47q-20 0 -29 17l-131 219q-7 14 -2 21t19 7h55q21 0 31 -16zM557 78q99 1 172 46t107 122q12 21 32 12l37 -14q25 -11 15 -33q-44 -104 -141 -165.5t-230 -61.5q-142 0 -239 69.5t-136 190.5q-29 93 -29 274q0 179 17 246
q33 130 134.5 207.5t248.5 77.5q163 0 263.5 -86t127.5 -236q14 -64 14 -219q0 -27 -24 -27h-666q-8 0 -8 -8q0 -130 10 -176q22 -99 100.5 -159t194.5 -60zM266 739q-11 -39 -14 -161q0 -9 8 -9h571q9 0 9 9q0 98 -11 155q-22 99 -97 159t-187 60q-111 0 -184.5 -58.5
t-94.5 -154.5z" />
    <glyph glyph-name="eacute" unicode="&#xe9;" horiz-adv-x="1087" 
d="M682 1464q14 0 18.5 -7t-2.5 -21l-131 -219q-9 -17 -28 -17h-47q-13 0 -18 8.5t1 20.5l121 219q10 16 31 16h55zM557 78q99 1 172 46t107 122q12 21 32 12l37 -14q25 -11 15 -33q-44 -104 -141 -165.5t-230 -61.5q-142 0 -239 69.5t-136 190.5q-29 93 -29 274
q0 179 17 246q33 130 134.5 207.5t248.5 77.5q163 0 263.5 -86t127.5 -236q14 -64 14 -219q0 -27 -24 -27h-666q-8 0 -8 -8q0 -130 10 -176q22 -99 100.5 -159t194.5 -60zM266 739q-11 -39 -14 -161q0 -9 8 -9h571q9 0 9 9q0 98 -11 155q-22 99 -97 159t-187 60
q-111 0 -184.5 -58.5t-94.5 -154.5z" />
    <glyph glyph-name="ecircumflex" unicode="&#xea;" horiz-adv-x="1087" 
d="M549 1374q-1 3 -6 3t-6 -3l-134 -176q-11 -14 -30 -14h-45q-15 0 -19.5 9t4.5 21l164 213q12 15 31 15h63q19 0 31 -15l166 -213q9 -12 4 -21t-20 -9h-43q-18 0 -29 14zM557 78q99 1 172 46t107 122q12 21 32 12l37 -14q25 -11 15 -33q-44 -104 -141 -165.5t-230 -61.5
q-142 0 -239 69.5t-136 190.5q-29 93 -29 274q0 179 17 246q33 130 134.5 207.5t248.5 77.5q163 0 263.5 -86t127.5 -236q14 -64 14 -219q0 -27 -24 -27h-666q-8 0 -8 -8q0 -130 10 -176q22 -99 100.5 -159t194.5 -60zM266 739q-11 -39 -14 -161q0 -9 8 -9h571q9 0 9 9
q0 98 -11 155q-22 99 -97 159t-187 60q-111 0 -184.5 -58.5t-94.5 -154.5z" />
    <glyph glyph-name="edieresis" unicode="&#xeb;" horiz-adv-x="1087" 
d="M377 1260q-37 0 -61.5 23.5t-24.5 59.5q0 34 25 58t61 24t60 -24t24 -58q0 -37 -23.5 -60t-60.5 -23zM711 1260q-38 0 -63 23t-25 60q0 34 25 58t63 24q35 0 58.5 -24t23.5 -58q0 -37 -23.5 -60t-58.5 -23zM557 78q99 1 172 46t107 122q12 21 32 12l37 -14q25 -11 15 -33
q-44 -104 -141 -165.5t-230 -61.5q-142 0 -239 69.5t-136 190.5q-29 93 -29 274q0 179 17 246q33 130 134.5 207.5t248.5 77.5q163 0 263.5 -86t127.5 -236q14 -64 14 -219q0 -27 -24 -27h-666q-8 0 -8 -8q0 -130 10 -176q22 -99 100.5 -159t194.5 -60zM266 739
q-11 -39 -14 -161q0 -9 8 -9h571q9 0 9 9q0 98 -11 155q-22 99 -97 159t-187 60q-111 0 -184.5 -58.5t-94.5 -154.5z" />
    <glyph glyph-name="igrave" unicode="&#xec;" horiz-adv-x="442" 
d="M246 1231q6 -12 1 -20.5t-18 -8.5h-47q-20 0 -28 17l-131 219q-7 14 -2.5 21t18.5 7h55q21 0 31 -16zM188 0q-10 0 -17 7t-7 18v983q0 10 7 17t17 7h60q10 0 17 -7t7 -17v-983q0 -11 -7 -18t-17 -7h-60z" />
    <glyph glyph-name="iacute" unicode="&#xed;" horiz-adv-x="442" 
d="M166 1202q-13 0 -17.5 8.5t1.5 20.5l120 219q10 16 31 16h55q14 0 19 -7t-2 -21l-131 -219q-8 -17 -29 -17h-47zM188 0q-10 0 -17 7t-7 18v983q0 10 7 17t17 7h60q10 0 17 -7t7 -17v-983q0 -11 -7 -18t-17 -7h-60z" />
    <glyph glyph-name="icircumflex" unicode="&#xee;" horiz-adv-x="442" 
d="M2 1186q-15 0 -19 9.5t5 21.5l164 213q11 14 30 14h64q19 0 30 -14l166 -213q9 -12 4 -21.5t-20 -9.5h-43q-18 0 -29 14l-131 176q-1 3 -6 3t-6 -3l-133 -176q-11 -14 -31 -14h-45zM188 0q-10 0 -17 7t-7 18v983q0 10 7 17t17 7h60q10 0 17 -7t7 -17v-983q0 -11 -7 -18
t-17 -7h-60z" />
    <glyph glyph-name="idieresis" unicode="&#xef;" horiz-adv-x="598" 
d="M131 1264q-37 0 -61.5 23.5t-24.5 60.5q0 34 25 58t61 24t60 -24t24 -58q0 -37 -23.5 -60.5t-60.5 -23.5zM465 1264q-38 0 -63 23.5t-25 60.5q0 34 25 58t63 24q35 0 58.5 -24t23.5 -58q0 -37 -23.5 -60.5t-58.5 -23.5zM272 0q-10 0 -17 7t-7 18v983q0 10 7 17t17 7h60
q10 0 17 -7t7 -17v-983q0 -11 -7 -18t-17 -7h-60z" />
    <glyph glyph-name="eth" unicode="&#xf0;" horiz-adv-x="1071" 
d="M913 723q11 -87 11 -219q0 -183 -17 -250q-33 -121 -135 -195.5t-244 -74.5q-140 0 -239 74t-133 196q-19 72 -19 252t19 246q27 109 110.5 178.5t202.5 75.5q83 6 164.5 -15t130.5 -67q3 -3 5 -1.5t1 5.5q-41 128 -152 262q-4 7 -10 4l-176 -55q-24 -9 -31 16l-6 23
q-5 22 17 28l139 43q11 4 2 13q-82 82 -152 141q-13 12 -9.5 21.5t20.5 9.5h65q18 0 31 -13q112 -102 143 -133q5 -5 11 -2l147 45q24 7 31 -16l6 -23q6 -23 -17 -30l-110 -35q-9 -3 -6 -8q177 -203 200 -496zM803 289q10 43 10 213t-10 211q-21 97 -94.5 156t-180.5 59
q-106 0 -178.5 -59t-91.5 -156q-12 -52 -12 -211q0 -164 12 -213q21 -98 92.5 -157.5t177.5 -59.5q107 0 180.5 60t94.5 157z" />
    <glyph glyph-name="ntilde" unicode="&#xf1;" horiz-adv-x="1099" 
d="M463 1313q-32 0 -55 -11t-48 -42q-16 -20 -34 -7l-19 13q-21 15 -8 34q60 95 158 95q24 0 48.5 -8.5t35.5 -14.5t39 -24q3 -2 19 -12t22 -13t18.5 -9.5t22.5 -8.5t20 -2q60 0 100 59q17 20 35 8l19 -12q20 -13 10 -33q-31 -53 -77 -78.5t-89 -25.5q-53 0 -123 49
q-21 16 -32 23t-27.5 13.5t-34.5 6.5zM586 1047q157 0 253.5 -96.5t96.5 -254.5v-671q0 -11 -7 -18t-18 -7h-59q-10 0 -17.5 7t-7.5 18v651q0 121 -73.5 197.5t-190.5 76.5q-124 0 -200 -75t-76 -195v-655q0 -11 -7.5 -18t-17.5 -7h-59q-11 0 -18 7t-7 18v983q0 10 7 17
t18 7h59q11 0 18 -7t7 -17v-97q0 -6 2.5 -7.5t5.5 3.5q44 68 119 104t172 36z" />
    <glyph glyph-name="ograve" unicode="&#xf2;" horiz-adv-x="1103" 
d="M580 1229q6 -12 1 -20.5t-18 -8.5h-47q-20 0 -29 17l-131 219q-7 14 -2 21t19 7h55q21 0 31 -16zM553 -16q-146 0 -247.5 75t-137.5 203q-25 85 -25 256q0 159 23 254q36 126 138.5 201.5t248.5 75.5q145 0 248 -75.5t137 -201.5q23 -87 23 -254q0 -169 -23 -256
q-34 -127 -137.5 -202.5t-247.5 -75.5zM553 80q109 0 185 59.5t100 159.5q12 56 12 217q0 163 -12 217q-24 100 -100 159.5t-187 59.5t-186 -59.5t-99 -159.5q-12 -54 -12 -217t12 -217q24 -101 99.5 -160t187.5 -59z" />
    <glyph glyph-name="oacute" unicode="&#xf3;" horiz-adv-x="1103" 
d="M500 1200q-13 0 -18 8.5t1 20.5l121 219q10 16 31 16h55q14 0 19 -7t-2 -21l-132 -219q-9 -17 -28 -17h-47zM553 -16q-146 0 -247.5 75t-137.5 203q-25 85 -25 256q0 159 23 254q36 126 138.5 201.5t248.5 75.5q145 0 248 -75.5t137 -201.5q23 -87 23 -254
q0 -169 -23 -256q-34 -127 -137.5 -202.5t-247.5 -75.5zM553 80q109 0 185 59.5t100 159.5q12 56 12 217q0 163 -12 217q-24 100 -100 159.5t-187 59.5t-186 -59.5t-99 -159.5q-12 -54 -12 -217t12 -217q24 -101 99.5 -160t187.5 -59z" />
    <glyph glyph-name="ocircumflex" unicode="&#xf4;" horiz-adv-x="1103" 
d="M336 1184q-15 0 -19 9t5 21l163 213q12 15 31 15h64q18 0 30 -15l166 -213q9 -12 4 -21t-20 -9h-43q-18 0 -29 14l-131 176q-1 3 -6 3t-6 -3l-133 -176q-11 -14 -31 -14h-45zM553 -16q-146 0 -247.5 75t-137.5 203q-25 85 -25 256q0 159 23 254q36 126 138.5 201.5
t248.5 75.5q145 0 248 -75.5t137 -201.5q23 -87 23 -254q0 -169 -23 -256q-34 -127 -137.5 -202.5t-247.5 -75.5zM553 80q109 0 185 59.5t100 159.5q12 56 12 217q0 163 -12 217q-24 100 -100 159.5t-187 59.5t-186 -59.5t-99 -159.5q-12 -54 -12 -217t12 -217
q24 -101 99.5 -160t187.5 -59z" />
    <glyph glyph-name="otilde" unicode="&#xf5;" horiz-adv-x="1103" 
d="M680 1237q-53 0 -123 49q-21 16 -32 23t-27.5 13.5t-34.5 6.5q-32 0 -55 -11t-48 -42q-16 -19 -34 -6l-19 12q-21 15 -8 35q59 94 158 94q24 0 48.5 -8.5t35.5 -14.5t39 -24q3 -2 19 -12t22 -13t18.5 -9.5t22.5 -8.5t20 -2q60 0 100 59q17 20 35 8l19 -12q23 -15 2 -45
q-31 -47 -74.5 -69.5t-83.5 -22.5zM553 -16q-146 0 -247.5 75t-137.5 203q-25 85 -25 256q0 159 23 254q36 126 138.5 201.5t248.5 75.5q145 0 248 -75.5t137 -201.5q23 -87 23 -254q0 -169 -23 -256q-34 -127 -137.5 -202.5t-247.5 -75.5zM553 80q109 0 185 59.5t100 159.5
q12 56 12 217q0 163 -12 217q-24 100 -100 159.5t-187 59.5t-186 -59.5t-99 -159.5q-12 -54 -12 -217t12 -217q24 -101 99.5 -160t187.5 -59z" />
    <glyph glyph-name="odieresis" unicode="&#xf6;" horiz-adv-x="1103" 
d="M385 1260q-37 0 -61.5 23.5t-24.5 59.5q0 34 25 58t61 24t60 -24t24 -58q0 -37 -23.5 -60t-60.5 -23zM719 1260q-38 0 -63 23t-25 60q0 34 25 58t63 24q35 0 58.5 -24t23.5 -58q0 -37 -23.5 -60t-58.5 -23zM553 -16q-146 0 -247.5 75t-137.5 203q-25 85 -25 256
q0 159 23 254q36 126 138.5 201.5t248.5 75.5q145 0 248 -75.5t137 -201.5q23 -87 23 -254q0 -169 -23 -256q-34 -127 -137.5 -202.5t-247.5 -75.5zM553 80q109 0 185 59.5t100 159.5q12 56 12 217q0 163 -12 217q-24 100 -100 159.5t-187 59.5t-186 -59.5t-99 -159.5
q-12 -54 -12 -217t12 -217q24 -101 99.5 -160t187.5 -59z" />
    <glyph glyph-name="divide" unicode="&#xf7;" horiz-adv-x="1032" 
d="M514 913q-41 0 -69.5 29t-28.5 70q0 40 29 68t69 28t70 -28.5t30 -67.5q0 -41 -30 -70t-70 -29zM111 625q-11 0 -18 7t-7 17v45q0 10 7 17.5t18 7.5h811q10 0 17 -7t7 -18v-45q0 -11 -7 -17.5t-17 -6.5h-811zM514 274q-41 0 -69.5 29.5t-28.5 69.5t29 69t69 29t70 -29
t30 -69t-30 -69.5t-70 -29.5z" />
    <glyph glyph-name="oslash" unicode="&#xf8;" horiz-adv-x="1114" 
d="M948 772q23 -87 23 -254q0 -169 -23 -256q-34 -127 -137.5 -202.5t-247.5 -75.5q-145 0 -252 77q-7 7 -10 0l-68 -104q-13 -23 -34 -6l-35 24q-18 13 -6 35l78 119q3 6 0 12q-39 51 -58 121q-24 82 -24 256q0 163 22 254q36 126 138.5 201.5t248.5 75.5q128 0 225 -60
q8 -4 11 2l55 86q6 10 16 12t19 -6l35 -24q20 -14 8 -35l-62 -94q-3 -7 0 -10q54 -64 78 -148zM276 299q4 -18 21 -57q3 -8 10 0l428 651q4 7 -2 10q-73 49 -172 49q-111 0 -186 -59.5t-99 -159.5q-12 -54 -12 -217t12 -217zM848 299q12 56 12 217q0 163 -12 217
q-11 47 -37 90q-8 8 -12 0l-434 -665q-4 -8 2 -11q76 -67 196 -67q109 0 185 59.5t100 159.5z" />
    <glyph glyph-name="ugrave" unicode="&#xf9;" horiz-adv-x="1095" 
d="M575 1212q6 -12 1.5 -20t-17.5 -8h-47q-21 0 -29 16l-131 219q-7 13 -2 21t19 8h55q21 0 31 -16zM811 1008q0 10 7 17t18 7h57q11 0 18 -7t7 -17v-983q0 -11 -7 -18t-18 -7h-57q-10 0 -17.5 7t-7.5 18v96q0 6 -3.5 7t-6.5 -5q-89 -137 -287 -137q-153 0 -252.5 90.5
t-99.5 247.5v684q0 10 7 17t17 7h58q10 0 17 -7t7 -17v-656q0 -123 72.5 -196.5t194.5 -73.5q126 0 201 74t75 196v656z" />
    <glyph glyph-name="uacute" unicode="&#xfa;" horiz-adv-x="1095" 
d="M686 1448q14 0 18.5 -8t-2.5 -21l-131 -219q-8 -16 -28 -16h-47q-13 0 -18 8t1 20l121 220q10 16 31 16h55zM811 1008q0 10 7 17t18 7h57q11 0 18 -7t7 -17v-983q0 -11 -7 -18t-18 -7h-57q-10 0 -17.5 7t-7.5 18v96q0 6 -3.5 7t-6.5 -5q-89 -137 -287 -137
q-153 0 -252.5 90.5t-99.5 247.5v684q0 10 7 17t17 7h58q10 0 17 -7t7 -17v-656q0 -123 72.5 -196.5t194.5 -73.5q126 0 201 74t75 196v656z" />
    <glyph glyph-name="ucircumflex" unicode="&#xfb;" horiz-adv-x="1095" 
d="M553 1358q-1 3 -6 3t-6 -3l-133 -176q-12 -15 -31 -15h-45q-15 0 -19.5 9.5t4.5 21.5l164 213q11 14 31 14h63q20 0 31 -14l166 -213q9 -12 4 -21.5t-20 -9.5h-43q-17 0 -29 15zM811 1008q0 10 7 17t18 7h57q11 0 18 -7t7 -17v-983q0 -11 -7 -18t-18 -7h-57
q-10 0 -17.5 7t-7.5 18v96q0 6 -3.5 7t-6.5 -5q-89 -137 -287 -137q-153 0 -252.5 90.5t-99.5 247.5v684q0 10 7 17t17 7h58q10 0 17 -7t7 -17v-656q0 -123 72.5 -196.5t194.5 -73.5q126 0 201 74t75 196v656z" />
    <glyph glyph-name="udieresis" unicode="&#xfc;" horiz-adv-x="1095" 
d="M381 1243q-37 0 -61.5 23.5t-24.5 60.5q0 34 25 58t61 24t60 -24t24 -58q0 -37 -23.5 -60.5t-60.5 -23.5zM715 1243q-38 0 -63 23.5t-25 60.5q0 34 25 58t63 24q35 0 58.5 -24t23.5 -58q0 -37 -23.5 -60.5t-58.5 -23.5zM811 1008q0 10 7 17t18 7h57q11 0 18 -7t7 -17
v-983q0 -11 -7 -18t-18 -7h-57q-10 0 -17.5 7t-7.5 18v96q0 6 -3.5 7t-6.5 -5q-89 -137 -287 -137q-153 0 -252.5 90.5t-99.5 247.5v684q0 10 7 17t17 7h58q10 0 17 -7t7 -17v-656q0 -123 72.5 -196.5t194.5 -73.5q126 0 201 74t75 196v656z" />
    <glyph glyph-name="yacute" unicode="&#xfd;" horiz-adv-x="919" 
d="M410 1188q-13 0 -18 8.5t1 20.5l121 219q10 16 31 16h55q14 0 18.5 -8t-2.5 -21l-131 -219q-8 -16 -28 -16h-47zM121 -410q-6 0 -10.5 7.5t-4.5 17.5v45q0 10 4.5 17.5t10.5 7.5h14q60 1 96 12.5t67.5 49t54 91t55.5 156.5q4 8 0 12l-349 998q-4 13 2 20.5t19 7.5h61
q20 0 27 -20l291 -854q1 -4 6 -4t6 4l281 854q7 20 26 20h64q13 0 18.5 -7.5t1.5 -20.5l-385 -1108q-35 -100 -64 -157t-69 -92t-86.5 -46t-122.5 -11h-14z" />
    <glyph glyph-name="thorn" unicode="&#xfe;" horiz-adv-x="1093" 
d="M936 772q20 -78 20 -258q0 -172 -22 -258q-34 -125 -130.5 -198.5t-236.5 -73.5q-178 0 -270 131q-3 4 -6.5 3.5t-3.5 -5.5v-498q0 -11 -7.5 -18t-17.5 -7h-59q-11 0 -18 7t-7 18v1794q0 11 7 18t18 7h59q10 0 17.5 -7t7.5 -18v-489q0 -5 3.5 -5.5t6.5 3.5
q92 131 270 131q142 0 239 -75t130 -202zM821 272q10 31 14.5 53.5t8.5 71t4 119.5q0 107 -8 157t-25 93q-24 82 -93.5 134t-166.5 52q-95 0 -160 -52.5t-86 -135.5q-18 -54 -22 -111v-276q5 -62 20 -105q23 -86 87.5 -139t160.5 -53q100 0 172 52.5t94 139.5z" />
    <glyph glyph-name="ydieresis" unicode="&#xff;" horiz-adv-x="919" 
d="M295 1247q-37 0 -61.5 23.5t-24.5 60.5q0 34 25 58t61 24t60 -24t24 -58q0 -37 -23.5 -60.5t-60.5 -23.5zM629 1247q-38 0 -63 23.5t-25 60.5q0 34 25 58t63 24q35 0 58.5 -24t23.5 -58q0 -37 -23.5 -60.5t-58.5 -23.5zM121 -410q-6 0 -10.5 7.5t-4.5 17.5v45
q0 10 4.5 17.5t10.5 7.5h14q60 1 96 12.5t67.5 49t54 91t55.5 156.5q4 8 0 12l-349 998q-4 13 2 20.5t19 7.5h61q20 0 27 -20l291 -854q1 -4 6 -4t6 4l281 854q7 20 26 20h64q13 0 18.5 -7.5t1.5 -20.5l-385 -1108q-35 -100 -64 -157t-69 -92t-86.5 -46t-122.5 -11h-14z" />
    <glyph glyph-name="Amacron" unicode="&#x100;" horiz-adv-x="1208" 
d="M846 1708q10 0 17 -7t7 -18v-32q0 -11 -7 -18t-17 -7h-488q-10 0 -17 7t-7 18v32q0 11 7 18t17 7h488zM1047 0q-20 0 -27 20l-88 269q-2 6 -8 6h-639q-7 0 -9 -6l-86 -269q-7 -20 -26 -20h-66q-12 0 -18 8t-2 21l454 1384q7 21 27 21h88q20 0 27 -21l456 -1384
q4 -13 -2 -21t-18 -8h-63zM309 395q-2 -3 1 -6.5t7 -3.5h574q4 0 7 3.5t1 6.5l-291 897q-2 4 -6 4t-6 -4z" />
    <glyph glyph-name="amacron" unicode="&#x101;" horiz-adv-x="1036" 
d="M768 1323q10 0 17.5 -7.5t7.5 -17.5v-32q0 -10 -7.5 -17.5t-17.5 -7.5h-487q-11 0 -18 7.5t-7 17.5v32q0 10 7 17.5t18 7.5h487zM520 1049q180 0 274.5 -93t94.5 -251v-680q0 -11 -7.5 -18t-17.5 -7h-59q-11 0 -18 7t-7 18v88q0 5 -3 6.5t-7 -2.5q-54 -65 -141.5 -99
t-188.5 -34q-67 0 -125 16t-106.5 49t-76.5 90.5t-28 134.5q0 153 112.5 240.5t309.5 87.5h246q8 0 8 8v92q0 115 -63.5 182.5t-198.5 67.5q-104 0 -171.5 -41.5t-84.5 -113.5q-7 -24 -29 -21l-63 8q-26 4 -23 23q20 109 121 175.5t252 66.5zM461 78q130 0 224.5 63
t94.5 176v187q0 8 -8 8h-233q-147 0 -236.5 -61.5t-89.5 -169.5q0 -100 69.5 -151.5t178.5 -51.5z" />
    <glyph glyph-name="Abreve" unicode="&#x102;" horiz-adv-x="1208" 
d="M602 1548q-83 0 -143.5 53.5t-69.5 133.5q-3 24 23 24h22q24 0 27 -24q7 -52 47.5 -86.5t93.5 -34.5q54 0 95 34.5t48 86.5q3 24 27 24h23q25 0 22 -24q-9 -79 -70 -133t-145 -54zM1047 0q-20 0 -27 20l-88 269q-2 6 -8 6h-639q-7 0 -9 -6l-86 -269q-7 -20 -26 -20h-66
q-12 0 -18 8t-2 21l454 1384q7 21 27 21h88q20 0 27 -21l456 -1384q4 -13 -2 -21t-18 -8h-63zM309 395q-2 -3 1 -6.5t7 -3.5h574q4 0 7 3.5t1 6.5l-291 897q-2 4 -6 4t-6 -4z" />
    <glyph glyph-name="abreve" unicode="&#x103;" horiz-adv-x="1036" 
d="M524 1163q-83 0 -143.5 53.5t-69.5 133.5q-3 24 23 24h22q24 0 27 -24q7 -52 47.5 -86.5t93.5 -34.5q54 0 95.5 34.5t48.5 86.5q3 24 26 24h23q25 0 22 -24q-9 -79 -70 -133t-145 -54zM520 1049q180 0 274.5 -93t94.5 -251v-680q0 -11 -7.5 -18t-17.5 -7h-59q-11 0 -18 7
t-7 18v88q0 5 -3 6.5t-7 -2.5q-54 -65 -141.5 -99t-188.5 -34q-67 0 -125 16t-106.5 49t-76.5 90.5t-28 134.5q0 153 112.5 240.5t309.5 87.5h246q8 0 8 8v92q0 115 -63.5 182.5t-198.5 67.5q-104 0 -171.5 -41.5t-84.5 -113.5q-7 -24 -29 -21l-63 8q-26 4 -23 23
q20 109 121 175.5t252 66.5zM461 78q130 0 224.5 63t94.5 176v187q0 8 -8 8h-233q-147 0 -236.5 -61.5t-89.5 -169.5q0 -100 69.5 -151.5t178.5 -51.5z" />
    <glyph glyph-name="Aogonek" unicode="&#x104;" horiz-adv-x="1269" 
d="M1143 -301q21 5 28 -18l5 -21q7 -24 -17 -31q-49 -7 -98 -5.5t-91.5 32t-56.5 88.5q-30 134 121 250q7 5 0 8q-11 8 -14 18l-88 269q-2 6 -8 6h-639q-7 0 -9 -6l-86 -269q-7 -20 -26 -20h-66q-12 0 -18 8t-2 21l454 1384q7 21 27 21h88q20 0 27 -21l456 -1384
q3 -9 4.5 -16t1.5 -9.5t-1 -3.5q-7 0 -11 -4q-66 -49 -103 -107t-26 -116q10 -51 51 -68t97 -6zM309 395q-2 -3 1 -6.5t7 -3.5h574q4 0 7 3.5t1 6.5l-291 897q-2 4 -6 4t-6 -4z" />
    <glyph glyph-name="aogonek" unicode="&#x105;" horiz-adv-x="1228" 
d="M907 -301q22 6 29 -18l4 -21q7 -24 -16 -31q-49 -7 -98 -5.5t-91.5 32t-56.5 88.5q-30 133 119 248l10 8h-2q-11 0 -18 7t-7 18v88q0 5 -3 6.5t-7 -2.5q-54 -65 -141.5 -99t-188.5 -34q-67 0 -125 16t-106.5 49t-76.5 90.5t-28 134.5q0 153 112.5 240.5t309.5 87.5h246
q8 0 8 8v92q0 115 -63.5 182.5t-198.5 67.5q-104 0 -171.5 -41.5t-84.5 -113.5q-7 -24 -29 -21l-63 8q-26 4 -20 29q22 106 122.5 171t247.5 65q180 0 274.5 -93t94.5 -251v-699q0 -8 -4 -10q-1 -2 -29 -25q-114 -103 -96 -198q10 -51 50.5 -68t96.5 -6zM461 78
q130 0 224.5 63t94.5 176v187q0 8 -8 8h-233q-147 0 -236.5 -61.5t-89.5 -169.5q0 -100 69.5 -151.5t178.5 -51.5z" />
    <glyph glyph-name="Cacute" unicode="&#x106;" horiz-adv-x="1243" 
d="M580 1602q-13 0 -18 8t1 20l121 219q10 17 31 17h55q14 0 18.5 -8t-2.5 -21l-131 -219q-8 -16 -28 -16h-47zM631 -18q-212 0 -340.5 122t-128.5 322v584q0 198 128.5 319t340.5 121q209 0 338 -119.5t129 -314.5q0 -10 -7 -17.5t-18 -7.5l-59 -2q-25 0 -25 12v13
q0 154 -98.5 247t-259.5 93q-163 0 -262 -93t-99 -247v-594q0 -154 99 -248t262 -94q161 0 259.5 94t98.5 248q0 22 25 22l59 -2q25 0 25 -10v-10q0 -196 -129 -317t-338 -121z" />
    <glyph glyph-name="cacute" unicode="&#x107;" horiz-adv-x="1056" 
d="M500 1200q-13 0 -18 8.5t1 20.5l121 219q10 16 31 16h55q14 0 19 -7t-2 -21l-132 -219q-9 -17 -28 -17h-47zM553 -16q-145 0 -247 75.5t-136 202.5q-27 102 -27 256q0 148 27 254q33 125 135.5 201t247.5 76t250.5 -74t134.5 -184q8 -23 12 -54q3 -22 -22 -26l-58 -9
q-21 -3 -28 23q0 9 -4 25q-19 86 -97 144t-188 58q-113 0 -187.5 -59.5t-95.5 -157.5q-18 -77 -18 -219q0 -143 18 -217q21 -100 95.5 -159.5t187.5 -59.5q112 0 191 58.5t94 146.5l2 8q3 22 28 18l56 -6q25 -4 22 -29l-8 -32q-28 -115 -133.5 -187.5t-251.5 -72.5z" />
    <glyph glyph-name="Cdotaccent" unicode="&#x10a;" horiz-adv-x="1243" 
d="M631 1628q-37 0 -60.5 22.5t-23.5 57.5q0 34 23.5 56t60.5 22q34 0 56 -22t22 -56q0 -35 -22 -57.5t-56 -22.5zM631 -18q-212 0 -340.5 122t-128.5 322v584q0 198 128.5 319t340.5 121q209 0 338 -119.5t129 -314.5q0 -10 -7 -17.5t-18 -7.5l-59 -2q-25 0 -25 12v13
q0 154 -98.5 247t-259.5 93q-163 0 -262 -93t-99 -247v-594q0 -154 99 -248t262 -94q161 0 259.5 94t98.5 248q0 22 25 22l59 -2q25 0 25 -10v-10q0 -196 -129 -317t-338 -121z" />
    <glyph glyph-name="cdotaccent" unicode="&#x10b;" horiz-adv-x="1056" 
d="M551 1227q-37 0 -60.5 22.5t-23.5 57.5q0 34 23.5 55.5t60.5 21.5q34 0 56 -21.5t22 -55.5q0 -35 -22 -57.5t-56 -22.5zM553 -16q-145 0 -247 75.5t-136 202.5q-27 102 -27 256q0 148 27 254q33 125 135.5 201t247.5 76t250.5 -74t134.5 -184q8 -23 12 -54q3 -22 -22 -26
l-58 -9q-21 -3 -28 23q0 9 -4 25q-19 86 -97 144t-188 58q-113 0 -187.5 -59.5t-95.5 -157.5q-18 -77 -18 -219q0 -143 18 -217q21 -100 95.5 -159.5t187.5 -59.5q112 0 191 58.5t94 146.5l2 8q3 22 28 18l56 -6q25 -4 22 -29l-8 -32q-28 -115 -133.5 -187.5t-251.5 -72.5z
" />
    <glyph glyph-name="Ccaron" unicode="&#x10c;" horiz-adv-x="1243" 
d="M594 1579q-18 0 -29 14l-159 213q-9 12 -5 21.5t19 9.5h41q20 0 31 -14l133 -176q1 -3 6 -3t6 3l133 176q11 14 29 14h41q15 0 19 -9.5t-5 -21.5l-162 -213q-11 -14 -28 -14h-70zM631 -18q-212 0 -340.5 122t-128.5 322v584q0 198 128.5 319t340.5 121q209 0 338 -119.5
t129 -314.5q0 -10 -7 -17.5t-18 -7.5l-59 -2q-25 0 -25 12v13q0 154 -98.5 247t-259.5 93q-163 0 -262 -93t-99 -247v-594q0 -154 99 -248t262 -94q161 0 259.5 94t98.5 248q0 22 25 22l59 -2q25 0 25 -10v-10q0 -196 -129 -317t-338 -121z" />
    <glyph glyph-name="ccaron" unicode="&#x10d;" horiz-adv-x="1056" 
d="M514 1178q-18 0 -29 14l-159 213q-9 12 -5 21.5t19 9.5h41q19 0 31 -15l133 -176q1 -3 6 -3t6 3l133 176q12 15 29 15h41q15 0 19 -9.5t-5 -21.5l-162 -213q-11 -14 -28 -14h-70zM553 -16q-145 0 -247 75.5t-136 202.5q-27 102 -27 256q0 148 27 254q33 125 135.5 201
t247.5 76t250.5 -74t134.5 -184q8 -23 12 -54q3 -22 -22 -26l-58 -9q-21 -3 -28 23q0 9 -4 25q-19 86 -97 144t-188 58q-113 0 -187.5 -59.5t-95.5 -157.5q-18 -77 -18 -219q0 -143 18 -217q21 -100 95.5 -159.5t187.5 -59.5q112 0 191 58.5t94 146.5l2 8q3 22 28 18l56 -6
q25 -4 22 -29l-8 -32q-28 -115 -133.5 -187.5t-251.5 -72.5z" />
    <glyph glyph-name="Dcaron" unicode="&#x10e;" horiz-adv-x="1265" 
d="M604 1556q-17 0 -29 15l-159 213q-9 12 -5 21.5t19 9.5h41q19 0 31 -15l133 -176q1 -3 6 -3t6 3l133 176q12 15 29 15h41q15 0 19 -9.5t-5 -21.5l-162 -213q-12 -15 -28 -15h-70zM233 0q-10 0 -17 7t-7 18v1384q0 11 7 18t17 7h472q197 0 311 -103.5t114 -281.5v-664
q0 -178 -114 -281.5t-311 -103.5h-472zM317 104q0 -8 9 -8h385q143 0 226.5 81t84.5 220v639q0 140 -83 220.5t-228 80.5h-385q-9 0 -9 -8v-1225z" />
    <glyph glyph-name="dcaron" unicode="&#x10f;" horiz-adv-x="1267" 
d="M1155 1432q10 16 31 16h55q14 0 18.5 -8t-2.5 -21l-131 -219q-8 -16 -28 -16h-47q-13 0 -18 8t1 20zM805 909q3 -4 6.5 -2.5t3.5 6.5v496q0 11 7.5 18t17.5 7h59q11 0 18 -7t7 -18v-1384q0 -11 -7 -18t-18 -7h-59q-10 0 -17.5 7t-7.5 18v96q0 6 -3.5 7.5t-6.5 -3.5
q-45 -68 -116 -104.5t-161 -36.5q-140 0 -236 73.5t-130 198.5q-23 89 -23 258q0 176 21 258q33 127 129.5 202t238.5 75q90 0 161 -36.5t116 -103.5zM788 272q25 73 25 242q0 108 -6 158t-21 92q-21 83 -85.5 135.5t-159.5 52.5q-97 0 -166.5 -52t-93.5 -134
q-17 -43 -25 -93t-8 -157q0 -103 6 -151.5t20 -92.5q22 -87 94 -139.5t173 -52.5q96 0 160 53t87 139z" />
    <glyph glyph-name="Dcroat" unicode="&#x110;" horiz-adv-x="1406" 
d="M846 1434q197 0 311.5 -103.5t114.5 -281.5v-664q0 -178 -114.5 -281.5t-311.5 -103.5h-471q-11 0 -18 7t-7 18v673q0 9 -8 9h-109q-11 0 -17.5 6.5t-6.5 17.5v33q0 10 6.5 17t17.5 7h109q8 0 8 9v612q0 11 7 18t18 7h471zM1163 397v639q0 140 -83 220.5t-228 80.5h-385
q-8 0 -8 -8v-532q0 -9 8 -9h258q11 0 18 -7t7 -17v-33q0 -10 -7 -17t-18 -7h-258q-8 0 -8 -9v-594q0 -8 8 -8h385q143 0 226.5 81t84.5 220z" />
    <glyph glyph-name="dcroat" unicode="&#x111;" horiz-adv-x="1228" 
d="M1065 1257q11 0 18 -7t7 -17v-29q0 -10 -7 -17t-18 -7h-133q-8 0 -8 -9v-1146q0 -11 -7 -18t-18 -7h-59q-10 0 -17.5 7t-7.5 18v96q0 6 -3.5 7.5t-6.5 -3.5q-45 -68 -116 -104.5t-161 -36.5q-140 0 -236 73.5t-130 198.5q-23 89 -23 258q0 176 21 258q33 127 129.5 202
t238.5 75q90 0 161 -36.5t116 -103.5q3 -4 6.5 -2.5t3.5 6.5v258q0 9 -8 9h-324q-11 0 -17.5 7t-6.5 17v29q0 11 6.5 17.5t17.5 6.5h324q8 0 8 9v143q0 11 7.5 18t17.5 7h59q11 0 18 -7t7 -18v-143q0 -9 8 -9h133zM788 272q25 73 25 242q0 108 -6 158t-21 92
q-21 83 -85.5 135.5t-159.5 52.5q-97 0 -166.5 -52t-93.5 -134q-17 -43 -25 -93t-8 -157q0 -103 6 -151.5t20 -92.5q22 -87 94 -139.5t173 -52.5q96 0 160 53t87 139z" />
    <glyph glyph-name="Emacron" unicode="&#x112;" horiz-adv-x="1251" 
d="M899 1731q11 0 18 -7.5t7 -17.5v-33q0 -10 -7 -17t-18 -7h-487q-11 0 -18 7t-7 17v33q0 10 7.5 17.5t17.5 7.5h487zM1122 1362q0 -11 -7 -18t-17 -7h-772q-9 0 -9 -8v-553q0 -8 9 -8h546q10 0 17.5 -7t7.5 -18v-47q0 -10 -7 -17t-18 -7h-546q-9 0 -9 -8v-560q0 -8 9 -8
h772q10 0 17 -7t7 -17v-47q0 -11 -7 -18t-17 -7h-865q-10 0 -17 7t-7 18v1384q0 11 7 18t17 7h865q10 0 17 -7t7 -18v-47z" />
    <glyph glyph-name="emacron" unicode="&#x113;" horiz-adv-x="1087" 
d="M786 1323q10 0 17.5 -7.5t7.5 -17.5v-32q0 -10 -7.5 -17.5t-17.5 -7.5h-487q-11 0 -18 7.5t-7 17.5v32q0 10 7 17.5t18 7.5h487zM557 78q99 1 172 46t107 122q12 21 32 12l37 -14q25 -11 15 -33q-44 -104 -141 -165.5t-230 -61.5q-142 0 -239 69.5t-136 190.5
q-29 93 -29 274q0 179 17 246q33 130 134.5 207.5t248.5 77.5q163 0 263.5 -86t127.5 -236q14 -64 14 -219q0 -27 -24 -27h-666q-8 0 -8 -8q0 -130 10 -176q22 -99 100.5 -159t194.5 -60zM266 739q-11 -39 -14 -161q0 -9 8 -9h571q9 0 9 9q0 98 -11 155q-22 99 -97 159
t-187 60q-111 0 -184.5 -58.5t-94.5 -154.5z" />
    <glyph glyph-name="Edotaccent" unicode="&#x116;" horiz-adv-x="1251" 
d="M655 1634q-37 0 -60.5 22.5t-23.5 57.5q0 34 23.5 56t60.5 22q34 0 56 -22t22 -56q0 -35 -22 -57.5t-56 -22.5zM1122 1362q0 -11 -7 -18t-17 -7h-772q-9 0 -9 -8v-553q0 -8 9 -8h546q10 0 17.5 -7t7.5 -18v-47q0 -10 -7 -17t-18 -7h-546q-9 0 -9 -8v-560q0 -8 9 -8h772
q10 0 17 -7t7 -17v-47q0 -11 -7 -18t-17 -7h-865q-10 0 -17 7t-7 18v1384q0 11 7 18t17 7h865q10 0 17 -7t7 -18v-47z" />
    <glyph glyph-name="edotaccent" unicode="&#x117;" horiz-adv-x="1087" 
d="M543 1227q-37 0 -60.5 22.5t-23.5 57.5q0 34 23.5 55.5t60.5 21.5q34 0 56 -21.5t22 -55.5q0 -35 -22 -57.5t-56 -22.5zM557 78q99 1 172 46t107 122q12 21 32 12l37 -14q25 -11 15 -33q-44 -104 -141 -165.5t-230 -61.5q-142 0 -239 69.5t-136 190.5q-29 93 -29 274
q0 179 17 246q33 130 134.5 207.5t248.5 77.5q163 0 263.5 -86t127.5 -236q14 -64 14 -219q0 -27 -24 -27h-666q-8 0 -8 -8q0 -130 10 -176q22 -99 100.5 -159t194.5 -60zM266 739q-11 -39 -14 -161q0 -9 8 -9h571q9 0 9 9q0 98 -11 155q-22 99 -97 159t-187 60
q-111 0 -184.5 -58.5t-94.5 -154.5z" />
    <glyph glyph-name="Eogonek" unicode="&#x118;" horiz-adv-x="1251" 
d="M1122 1362q0 -11 -7 -18t-17 -7h-772q-9 0 -9 -8v-553q0 -8 9 -8h546q10 0 17.5 -7t7.5 -18v-47q0 -10 -7 -17t-18 -7h-546q-9 0 -9 -8v-560q0 -8 9 -8h772q10 0 17 -7t7 -17v-47q0 -11 -7 -18t-17 -7h-385q-7 0 -11 -4q-129 -106 -110 -209q10 -51 50.5 -68t96.5 -6
q22 6 29 -18l4 -21q7 -24 -16 -30q-49 -7 -98 -6t-91.5 32t-56.5 88q-30 121 98 232q4 4 2.5 7t-6.5 3h-371q-10 0 -17 7t-7 18v1384q0 11 7 18t17 7h865q10 0 17 -7t7 -18v-47z" />
    <glyph glyph-name="eogonek" unicode="&#x119;" horiz-adv-x="1087" 
d="M557 78q99 1 172 46t107 122q12 21 32 12l37 -14q25 -11 15 -33q-41 -94 -125 -154.5t-199 -70.5q-6 0 -10 -4q-132 -108 -113 -211q10 -51 51 -68t97 -6q21 5 28 -19l4 -20q7 -24 -16 -31q-49 -7 -98 -5.5t-91.5 32t-56.5 88.5q-29 121 103 235q4 3 2.5 6t-7.5 5
q-118 13 -199.5 80.5t-115.5 175.5q-29 93 -29 274q0 179 17 246q33 130 134.5 207.5t248.5 77.5q163 0 263.5 -86t127.5 -236q14 -64 14 -219q0 -27 -24 -27h-666q-8 0 -8 -8q0 -130 10 -176q22 -99 100.5 -159t194.5 -60zM266 739q-11 -39 -14 -161q0 -9 8 -9h571q9 0 9 9
q0 98 -11 155q-22 99 -97 159t-187 60q-111 0 -184.5 -58.5t-94.5 -154.5z" />
    <glyph glyph-name="Ecaron" unicode="&#x11a;" horiz-adv-x="1251" 
d="M717 1599q-11 -14 -29 -14h-70q-17 0 -28 14l-160 213q-9 12 -5 21.5t19 9.5h41q20 0 31 -14l133 -176q1 -3 6 -3t7 3l133 176q11 14 28 14h41q15 0 19.5 -9.5t-4.5 -21.5zM1122 1362q0 -11 -7 -18t-17 -7h-772q-9 0 -9 -8v-553q0 -8 9 -8h546q10 0 17.5 -7t7.5 -18v-47
q0 -10 -7 -17t-18 -7h-546q-9 0 -9 -8v-560q0 -8 9 -8h772q10 0 17 -7t7 -17v-47q0 -11 -7 -18t-17 -7h-865q-10 0 -17 7t-7 18v1384q0 11 7 18t17 7h865q10 0 17 -7t7 -18v-47z" />
    <glyph glyph-name="ecaron" unicode="&#x11b;" horiz-adv-x="1087" 
d="M604 1176q-12 -15 -29 -15h-69q-17 0 -29 15l-160 213q-9 12 -4.5 21t19.5 9h41q19 0 30 -14l134 -176q1 -3 6 -3t6 3l133 176q11 14 29 14h41q15 0 19 -9t-5 -21zM557 78q99 1 172 46t107 122q12 21 32 12l37 -14q25 -11 15 -33q-44 -104 -141 -165.5t-230 -61.5
q-142 0 -239 69.5t-136 190.5q-29 93 -29 274q0 179 17 246q33 130 134.5 207.5t248.5 77.5q163 0 263.5 -86t127.5 -236q14 -64 14 -219q0 -27 -24 -27h-666q-8 0 -8 -8q0 -130 10 -176q22 -99 100.5 -159t194.5 -60zM266 739q-11 -39 -14 -161q0 -9 8 -9h571q9 0 9 9
q0 98 -11 155q-22 99 -97 159t-187 60q-111 0 -184.5 -58.5t-94.5 -154.5z" />
    <glyph glyph-name="Gbreve" unicode="&#x11e;" horiz-adv-x="1239" 
d="M627 1565q-83 0 -143.5 53t-69.5 133q-3 25 22 25h23q23 0 26 -25q7 -52 48 -86.5t94 -34.5q54 0 95 34.5t48 86.5q3 25 27 25h22q26 0 23 -25q-9 -79 -70 -132.5t-145 -53.5zM631 -16q-212 0 -340.5 120.5t-128.5 317.5v590q0 198 128.5 318t340.5 120q208 0 336.5 -119
t128.5 -307v-25q0 -10 -7 -17t-18 -7h-59q-11 0 -18 7t-7 17v23q0 148 -98.5 240t-257.5 92q-163 0 -262 -93t-99 -245v-598q0 -152 100 -245t263 -93q160 0 257 88.5t97 237.5v206q0 9 -8 9h-315q-11 0 -18 7t-7 17v47q0 10 7.5 17.5t17.5 7.5h407q11 0 18 -7.5t7 -17.5
v-262q0 -207 -127 -326.5t-338 -119.5z" />
    <glyph glyph-name="gbreve" unicode="&#x11f;" horiz-adv-x="1085" 
d="M557 1165q-83 0 -143.5 53.5t-69.5 133.5q-3 24 23 24h22q24 0 27 -24q7 -52 47.5 -86.5t93.5 -34.5q54 0 95 34.5t48 86.5q3 24 27 24h23q25 0 22 -24q-9 -79 -70 -133t-145 -54zM817 1008q0 10 7 17t18 7h59q11 0 18 -7t7 -17v-985q0 -230 -138.5 -335t-390.5 -96
q-24 3 -24 27l2 51q0 26 24 23q218 -6 318 75t100 257v102q0 6 -3.5 7.5t-6.5 -3.5q-92 -141 -281 -141q-134 0 -233.5 72.5t-132.5 199.5q-23 88 -23 252q0 176 25 264q33 121 129 196t231 75q189 0 285 -140q3 -4 6.5 -2.5t3.5 6.5v95zM807 301q10 49 10 215
q0 165 -10 219q-16 93 -87 155t-177 62q-107 0 -180 -61t-99 -156q-18 -61 -18 -217q0 -152 18 -217q23 -94 97.5 -155.5t181.5 -61.5q110 0 179 62t85 155z" />
    <glyph glyph-name="Gdotaccent" unicode="&#x120;" horiz-adv-x="1239" 
d="M627 1628q-37 0 -60.5 22.5t-23.5 57.5q0 34 23.5 56t60.5 22q34 0 56 -22t22 -56q0 -35 -22 -57.5t-56 -22.5zM631 -16q-212 0 -340.5 120.5t-128.5 317.5v590q0 198 128.5 318t340.5 120q208 0 336.5 -119t128.5 -307v-25q0 -10 -7 -17t-18 -7h-59q-11 0 -18 7t-7 17
v23q0 148 -98.5 240t-257.5 92q-163 0 -262 -93t-99 -245v-598q0 -152 100 -245t263 -93q160 0 257 88.5t97 237.5v206q0 9 -8 9h-315q-11 0 -18 7t-7 17v47q0 10 7.5 17.5t17.5 7.5h407q11 0 18 -7.5t7 -17.5v-262q0 -207 -127 -326.5t-338 -119.5z" />
    <glyph glyph-name="gdotaccent" unicode="&#x121;" horiz-adv-x="1085" 
d="M557 1229q-37 0 -60.5 22.5t-23.5 57.5q0 34 23.5 55.5t60.5 21.5q34 0 56 -21.5t22 -55.5q0 -35 -22 -57.5t-56 -22.5zM817 1008q0 10 7 17t18 7h59q11 0 18 -7t7 -17v-985q0 -230 -138.5 -335t-390.5 -96q-24 3 -24 27l2 51q0 26 24 23q218 -6 318 75t100 257v102
q0 6 -3.5 7.5t-6.5 -3.5q-92 -141 -281 -141q-134 0 -233.5 72.5t-132.5 199.5q-23 88 -23 252q0 176 25 264q33 121 129 196t231 75q189 0 285 -140q3 -4 6.5 -2.5t3.5 6.5v95zM807 301q10 49 10 215q0 165 -10 219q-16 93 -87 155t-177 62q-107 0 -180 -61t-99 -156
q-18 -61 -18 -217q0 -152 18 -217q23 -94 97.5 -155.5t181.5 -61.5q110 0 179 62t85 155z" />
    <glyph glyph-name="uni0122" unicode="&#x122;" horiz-adv-x="1239" 
d="M631 -16q-212 0 -340.5 120.5t-128.5 317.5v590q0 198 128.5 318t340.5 120q208 0 336.5 -119t128.5 -307v-25q0 -10 -7 -17t-18 -7h-59q-11 0 -18 7t-7 17v23q0 148 -98.5 240t-257.5 92q-163 0 -262 -93t-99 -245v-598q0 -152 100 -245t263 -93q160 0 257 88.5
t97 237.5v206q0 9 -8 9h-315q-11 0 -18 7t-7 17v47q0 10 7.5 17.5t17.5 7.5h407q11 0 18 -7.5t7 -17.5v-262q0 -207 -127 -326.5t-338 -119.5zM522 -401q-13 0 -17.5 8t1.5 20l121 219q10 17 30 17h56q14 0 18.5 -7.5t-2.5 -21.5l-131 -219q-8 -16 -29 -16h-47z" />
    <glyph glyph-name="uni0123" unicode="&#x123;" horiz-adv-x="1085" 
d="M662 1436q13 0 17.5 -8.5t-1.5 -20.5l-121 -219q-10 -17 -31 -17h-55q-14 0 -18.5 7.5t2.5 21.5l131 219q8 17 28 17h48zM817 1008q0 10 7 17t18 7h59q11 0 18 -7t7 -17v-985q0 -230 -138.5 -335t-390.5 -96q-24 3 -24 27l2 51q0 26 24 23q218 -6 318 75t100 257v102
q0 6 -3.5 7.5t-6.5 -3.5q-92 -141 -281 -141q-134 0 -233.5 72.5t-132.5 199.5q-23 88 -23 252q0 176 25 264q33 121 129 196t231 75q189 0 285 -140q3 -4 6.5 -2.5t3.5 6.5v95zM807 301q10 49 10 215q0 165 -10 219q-16 93 -87 155t-177 62q-107 0 -180 -61t-99 -156
q-18 -61 -18 -217q0 -152 18 -217q23 -94 97.5 -155.5t181.5 -61.5q110 0 179 62t85 155z" />
    <glyph glyph-name="Hbar" unicode="&#x126;" horiz-adv-x="1353" 
d="M1249 1124q11 0 18 -7t7 -17v-35q0 -11 -7 -18t-18 -7h-94q-8 0 -8 -8v-1007q0 -11 -7.5 -18t-17.5 -7h-59q-11 0 -18 7t-7 18v639q0 8 -8 8h-704q-9 0 -9 -8v-639q0 -11 -7 -18t-17 -7h-60q-10 0 -17 7t-7 18v1007q0 8 -8 8h-92q-11 0 -18 7t-7 18v35q0 10 7 17t18 7h92
q8 0 8 9v276q0 11 7 18t17 7h60q10 0 17 -7t7 -18v-276q0 -3 3 -6t6 -3h704q8 0 8 9v276q0 11 7 18t18 7h59q10 0 17.5 -7t7.5 -18v-276q0 -9 8 -9h94zM1030 768q8 0 8 8v256q0 8 -8 8h-704q-9 0 -9 -8v-256q0 -8 9 -8h704z" />
    <glyph glyph-name="hbar" unicode="&#x127;" horiz-adv-x="1099" 
d="M586 1047q157 0 253.5 -96.5t96.5 -254.5v-671q0 -11 -7 -18t-18 -7h-59q-10 0 -17.5 7t-7.5 18v651q0 121 -73.5 197.5t-190.5 76.5q-124 0 -200 -75t-76 -195v-655q0 -11 -7.5 -18t-17.5 -7h-59q-11 0 -18 7t-7 18v1114q0 8 -8 8h-119q-11 0 -17.5 6.5t-6.5 17.5v29
q0 11 7 18t17 7h119q8 0 8 8v176q0 11 7 18t18 7h59q10 0 17.5 -7t7.5 -18v-176q0 -8 8 -8h338q10 0 17 -7t7 -18v-29q0 -11 -6.5 -17.5t-17.5 -6.5h-338q-8 0 -8 -8v-228q0 -6 2.5 -7.5t5.5 3.5q44 68 119 104t172 36z" />
    <glyph glyph-name="Imacron" unicode="&#x12a;" horiz-adv-x="528" 
d="M20 1649q-10 0 -17 6.5t-7 17.5v33q0 11 7 18t17 7h488q10 0 17 -7t7 -18v-33q0 -11 -7 -17.5t-17 -6.5h-488zM233 0q-10 0 -17 7t-7 18v1384q0 11 7 18t17 7h60q10 0 17 -7t7 -18v-1384q0 -11 -7 -18t-17 -7h-60z" />
    <glyph glyph-name="imacron" unicode="&#x12b;" horiz-adv-x="442" 
d="M-27 1243q-10 0 -17 7t-7 18v32q0 11 7 18t17 7h488q10 0 17 -7t7 -18v-32q0 -11 -7 -18t-17 -7h-488zM188 0q-10 0 -17 7t-7 18v983q0 10 7 17t17 7h60q10 0 17 -7t7 -17v-983q0 -11 -7 -18t-17 -7h-60z" />
    <glyph glyph-name="Iogonek" unicode="&#x12e;" horiz-adv-x="692" 
d="M442 -301q22 6 29 -18l4 -21q7 -24 -16 -31q-49 -7 -98 -5.5t-91.5 32t-56.5 88.5q-30 134 121 250q7 5 0 8q-12 6 -12 23v1384q0 11 7 18t17 7h60q10 0 17 -7t7 -18v-1391v-18q-4 -2 -6 -4q-150 -115 -129 -223q10 -51 50.5 -68t96.5 -6z" />
    <glyph glyph-name="iogonek" unicode="&#x12f;" horiz-adv-x="579" 
d="M319 1231q-37 0 -60 22.5t-23 57.5q0 34 23 56t60 22q34 0 56 -22t22 -56q0 -35 -22 -57.5t-56 -22.5zM387 -301q22 6 29 -18l4 -21q7 -24 -17 -31q-49 -7 -98 -5.5t-91 32t-56 88.5q-30 134 121 250q7 5 0 8q-13 6 -13 23v983q0 10 7 17t18 7h59q11 0 18 -7t7 -17v-990
v-18q-4 -2 -6 -4q-150 -115 -129 -223q10 -51 50.5 -68t96.5 -6z" />
    <glyph glyph-name="Idotaccent" unicode="&#x130;" horiz-adv-x="528" 
d="M264 1634q-37 0 -60.5 22.5t-23.5 57.5q0 34 23.5 56t60.5 22q34 0 56 -22t22 -56q0 -35 -22 -57.5t-56 -22.5zM233 0q-10 0 -17 7t-7 18v1384q0 11 7 18t17 7h60q10 0 17 -7t7 -18v-1384q0 -11 -7 -18t-17 -7h-60z" />
    <glyph glyph-name="dotlessi" unicode="&#x131;" horiz-adv-x="442" 
d="M188 0q-10 0 -17 7t-7 18v983q0 10 7 17t17 7h60q10 0 17 -7t7 -17v-983q0 -11 -7 -18t-17 -7h-60z" />
    <glyph glyph-name="ij" unicode="&#x133;" horiz-adv-x="954" 
d="M248 1239q-40 0 -67 26t-27 64t27 63t67 25q41 0 67.5 -25t26.5 -63q0 -39 -26.5 -64.5t-67.5 -25.5zM723 1237q-41 0 -66.5 25t-25.5 65t26.5 65t65.5 25q42 0 69 -24.5t27 -65.5q0 -40 -26 -65t-70 -25zM219 0q-10 0 -17 7t-7 18v983q0 10 6.5 17t17.5 7h60
q11 0 17.5 -7t6.5 -17v-983q0 -11 -7 -18t-17 -7h-60zM453 -428q-25 0 -25 25v45q0 24 25 24q106 4 161.5 61t55.5 160v1121q0 10 7 17t17 7h60q10 0 17 -7t7 -17v-1121q0 -156 -80 -234t-245 -81z" />
    <glyph glyph-name="uni0136" unicode="&#x136;" horiz-adv-x="1243" 
d="M233 0q-10 0 -17 7t-7 18v1384q0 11 7 18t17 7h60q10 0 17 -7t7 -18v-719q0 -5 4 -6.5t7 2.5l690 735q10 13 31 13h65q15 0 19.5 -9.5t-5.5 -21.5l-507 -557q-4 -4 0 -12l555 -803q8 -12 3 -21.5t-20 -9.5h-72q-18 0 -28 16l-512 740q-5 9 -12 2l-213 -219q-5 -5 -5 -11
v-503q0 -11 -7 -18t-17 -7h-60zM555 -385q-13 0 -17.5 8.5t1.5 20.5l120 219q10 16 31 16h55q14 0 19 -7.5t-2 -21.5l-131 -219q-8 -16 -29 -16h-47z" />
    <glyph glyph-name="uni0137" unicode="&#x137;" horiz-adv-x="1007" 
d="M203 0q-11 0 -18 7t-7 18v1384q0 11 7 18t18 7h59q10 0 17.5 -7t7.5 -18v-870q0 -4 3.5 -5.5t6.5 1.5l471 485q12 12 31 12h71q15 0 19 -9.5t-6 -21.5l-256 -272q-5 -5 -2 -10l313 -690q6 -13 1 -21t-19 -8h-64q-21 0 -29 18l-276 627q-4 8 -10 2l-250 -258q-4 -4 -4 -10
v-354q0 -11 -7.5 -18t-17.5 -7h-59zM440 -385q-13 0 -17.5 8.5t1.5 20.5l121 219q10 16 30 16h56q14 0 18.5 -7.5t-2.5 -21.5l-131 -219q-8 -16 -29 -16h-47z" />
    <glyph glyph-name="Lacute" unicode="&#x139;" horiz-adv-x="1161" 
d="M213 1585q-13 0 -17.5 8.5t1.5 20.5l120 219q10 16 31 16h55q14 0 19 -7.5t-2 -20.5l-131 -219q-9 -17 -29 -17h-47zM233 0q-10 0 -17 7t-7 18v1384q0 11 7 18t17 7h60q10 0 17 -7t7 -18v-1305q0 -8 9 -8h731q11 0 17.5 -7t6.5 -17v-47q0 -11 -7 -18t-17 -7h-824z" />
    <glyph glyph-name="lacute" unicode="&#x13a;" horiz-adv-x="464" 
d="M184 1585q-13 0 -17.5 8.5t1.5 20.5l121 219q10 16 30 16h56q14 0 18.5 -7.5t-2.5 -20.5l-131 -219q-8 -17 -29 -17h-47zM203 0q-11 0 -18 7t-7 18v1384q0 11 7 18t18 7h59q10 0 17.5 -7t7.5 -18v-1384q0 -11 -7.5 -18t-17.5 -7h-59z" />
    <glyph glyph-name="uni013B" unicode="&#x13b;" horiz-adv-x="1161" 
d="M233 0q-10 0 -17 7t-7 18v1384q0 11 7 18t17 7h60q10 0 17 -7t7 -18v-1305q0 -8 9 -8h731q11 0 17.5 -7t6.5 -17v-47q0 -11 -7 -18t-17 -7h-824zM487 -385q-13 0 -17.5 8.5t1.5 20.5l121 219q10 16 31 16h55q14 0 18.5 -7.5t-2.5 -21.5l-131 -219q-8 -16 -28 -16h-48z
" />
    <glyph glyph-name="uni013C" unicode="&#x13c;" horiz-adv-x="466" 
d="M203 0q-11 0 -18 7t-7 18v1384q0 11 7 18t18 7h59q10 0 17.5 -7t7.5 -18v-1384q0 -11 -7.5 -18t-17.5 -7h-59zM63 -385q-13 0 -17.5 8.5t1.5 20.5l121 219q10 16 31 16h55q14 0 18.5 -7.5t-2.5 -21.5l-131 -219q-8 -16 -28 -16h-48z" />
    <glyph glyph-name="Lcaron" unicode="&#x13d;" horiz-adv-x="1161" 
d="M227 1546q-16 0 -28 15l-160 213q-9 12 -5 21t19 9h41q20 0 31 -14l133 -176q2 -3 6 -3t6 3l133 176q11 14 29 14h41q15 0 19 -9t-5 -21l-161 -213q-12 -15 -29 -15h-70zM233 0q-10 0 -17 7t-7 18v1384q0 11 7 18t17 7h60q10 0 17 -7t7 -18v-1305q0 -8 9 -8h731
q11 0 17.5 -7t6.5 -17v-47q0 -11 -7 -18t-17 -7h-824z" />
    <glyph glyph-name="lcaron" unicode="&#x13e;" horiz-adv-x="464" 
d="M199 1546q-17 0 -29 15l-160 213q-9 12 -4.5 21t19.5 9h41q19 0 30 -14l133 -176q1 -3 6 -3t7 3l133 176q11 14 28 14h41q15 0 19.5 -9t-4.5 -21l-162 -213q-12 -15 -29 -15h-69zM203 0q-11 0 -18 7t-7 18v1384q0 11 7 18t18 7h59q10 0 17.5 -7t7.5 -18v-1384
q0 -11 -7.5 -18t-17.5 -7h-59z" />
    <glyph glyph-name="Lslash" unicode="&#x141;" horiz-adv-x="1161" 
d="M317 104q0 -8 9 -8h731q11 0 17.5 -7t6.5 -17v-47q0 -11 -7 -18t-17 -7h-824q-10 0 -17 7t-7 18v503q0 4 -3.5 5.5t-6.5 -1.5l-217 -157q-19 -16 -35 4l-25 31q-15 18 4 34l279 203q4 4 4 10v752q0 11 7 18t17 7h60q10 0 17 -7t7 -18v-666q0 -4 4 -5.5t7 1.5l477 348
q21 17 35 -4l26 -32q13 -19 -6 -35l-538 -391q-5 -5 -5 -11v-510z" />
    <glyph glyph-name="lslash" unicode="&#x142;" horiz-adv-x="464" 
d="M528 856q13 -19 -8 -33l-227 -139q-6 -3 -6 -10v-649q0 -11 -7.5 -18t-17.5 -7h-59q-11 0 -18 7t-7 18v575q0 4 -3.5 6t-6.5 0l-117 -71q-20 -13 -33 10l-18 33q-12 18 8 32l164 101q6 3 6 10v688q0 11 7 18t18 7h59q10 0 17.5 -7t7.5 -18v-614q0 -4 3.5 -6.5t6.5 -0.5
l178 111q19 13 33 -8z" />
    <glyph glyph-name="Nacute" unicode="&#x143;" horiz-adv-x="1386" 
d="M641 1608q-13 0 -17.5 8t1.5 20l120 219q10 17 31 17h55q14 0 19 -8t-2 -21l-131 -219q-8 -16 -29 -16h-47zM233 0q-10 0 -17 7t-7 18v1384q0 11 7 18t17 7h62q21 0 29 -17l735 -1192q3 -6 6.5 -5t3.5 7v1182q0 11 7.5 18t17.5 7h59q11 0 18 -7t7 -18v-1384q0 -11 -7 -18
t-18 -7h-61q-21 0 -29 16l-735 1194q-3 6 -7 5t-4 -7v-1183q0 -11 -7 -18t-17 -7h-60z" />
    <glyph glyph-name="nacute" unicode="&#x144;" horiz-adv-x="1099" 
d="M690 1448q14 0 19 -8t-2 -21l-132 -219q-8 -16 -28 -16h-47q-13 0 -18 8t1 20l121 220q10 16 31 16h55zM586 1047q157 0 253.5 -96.5t96.5 -254.5v-671q0 -11 -7 -18t-18 -7h-59q-10 0 -17.5 7t-7.5 18v651q0 121 -73.5 197.5t-190.5 76.5q-124 0 -200 -75t-76 -195v-655
q0 -11 -7.5 -18t-17.5 -7h-59q-11 0 -18 7t-7 18v983q0 10 7 17t18 7h59q11 0 18 -7t7 -17v-97q0 -6 2.5 -7.5t5.5 3.5q44 68 119 104t172 36z" />
    <glyph glyph-name="uni0145" unicode="&#x145;" horiz-adv-x="1386" 
d="M233 0q-10 0 -17 7t-7 18v1384q0 11 7 18t17 7h62q21 0 29 -17l735 -1192q3 -6 6.5 -5t3.5 7v1182q0 11 7.5 18t17.5 7h59q11 0 18 -7t7 -18v-1384q0 -11 -7 -18t-18 -7h-61q-21 0 -29 16l-735 1194q-3 6 -7 5t-4 -7v-1183q0 -11 -7 -18t-17 -7h-60zM606 -385
q-13 0 -17.5 8.5t1.5 20.5l121 219q10 16 30 16h56q14 0 18.5 -7.5t-2.5 -21.5l-131 -219q-8 -16 -29 -16h-47z" />
    <glyph glyph-name="uni0146" unicode="&#x146;" horiz-adv-x="1099" 
d="M586 1047q157 0 253.5 -96.5t96.5 -254.5v-671q0 -11 -7 -18t-18 -7h-59q-10 0 -17.5 7t-7.5 18v651q0 121 -73.5 197.5t-190.5 76.5q-124 0 -200 -75t-76 -195v-655q0 -11 -7.5 -18t-17.5 -7h-59q-11 0 -18 7t-7 18v983q0 10 7 17t18 7h59q11 0 18 -7t7 -17v-97
q0 -6 2.5 -7.5t5.5 3.5q44 68 119 104t172 36zM465 -385q-13 0 -17.5 8.5t1.5 20.5l120 219q10 16 31 16h55q14 0 19 -7.5t-2 -21.5l-131 -219q-8 -16 -29 -16h-47z" />
    <glyph glyph-name="Ncaron" unicode="&#x147;" horiz-adv-x="1386" 
d="M655 1585q-17 0 -28 14l-160 213q-9 12 -5 21.5t19 9.5h41q20 0 31 -14l133 -176q2 -3 6 -3t6 3l133 176q11 14 29 14h41q15 0 19 -9.5t-5 -21.5l-161 -213q-11 -14 -29 -14h-70zM233 0q-10 0 -17 7t-7 18v1384q0 11 7 18t17 7h62q21 0 29 -17l735 -1192q3 -6 6.5 -5
t3.5 7v1182q0 11 7.5 18t17.5 7h59q11 0 18 -7t7 -18v-1384q0 -11 -7 -18t-18 -7h-61q-21 0 -29 16l-735 1194q-3 6 -7 5t-4 -7v-1183q0 -11 -7 -18t-17 -7h-60z" />
    <glyph glyph-name="ncaron" unicode="&#x148;" horiz-adv-x="1099" 
d="M612 1176q-12 -15 -28 -15h-70q-17 0 -29 15l-159 213q-9 12 -5 21t19 9h41q20 0 31 -14l133 -176q1 -3 6 -3t6 3l133 176q11 14 29 14h41q15 0 19 -9t-5 -21zM586 1047q157 0 253.5 -96.5t96.5 -254.5v-671q0 -11 -7 -18t-18 -7h-59q-10 0 -17.5 7t-7.5 18v651
q0 121 -73.5 197.5t-190.5 76.5q-124 0 -200 -75t-76 -195v-655q0 -11 -7.5 -18t-17.5 -7h-59q-11 0 -18 7t-7 18v983q0 10 7 17t18 7h59q11 0 18 -7t7 -17v-97q0 -6 2.5 -7.5t5.5 3.5q44 68 119 104t172 36z" />
    <glyph glyph-name="Eng" unicode="&#x14a;" horiz-adv-x="1390" 
d="M1178 1159l2 -8h2v-1143q0 -160 -66 -236.5t-225 -80.5q-25 0 -25 24v47q0 25 25 25q97 3 138 54.5t44 152.5q0 8 -2 10l-743 1206q-3 6 -7 5t-4 -7v-1183q0 -11 -7 -18t-17 -7h-60q-10 0 -17 7t-7 18v1384q0 11 7 18t17 7h62q21 0 29 -17l735 -1192q3 -6 6.5 -5t3.5 7
v1182q0 11 7.5 18t17.5 7h59q11 0 18 -7t7 -18v-250z" />
    <glyph glyph-name="eng" unicode="&#x14b;" horiz-adv-x="1101" 
d="M936 426l2 -8h2v-447q0 -149 -67 -229t-214 -86q-24 0 -24 25v40q0 24 24 27q86 7 129 64.5t43 156.5v23l-2 8h-2v676q0 121 -73.5 197.5t-190.5 76.5q-124 0 -200 -75t-76 -195v-655q0 -11 -7.5 -18t-17.5 -7h-59q-11 0 -18 7t-7 18v983q0 10 7 17t18 7h59q11 0 18 -7
t7 -17v-97q0 -6 3.5 -7t6.5 5q44 67 118.5 102.5t170.5 35.5q157 0 253.5 -96.5t96.5 -254.5v-270z" />
    <glyph glyph-name="Omacron" unicode="&#x14c;" horiz-adv-x="1273" 
d="M391 1642q-10 0 -17 7t-7 18v33q0 10 6.5 17t17.5 7h488q11 0 17.5 -7t6.5 -17v-33q0 -11 -7 -18t-17 -7h-488zM635 -16q-214 0 -343.5 128t-129.5 337v536q0 209 129.5 337t343.5 128q215 0 346 -128t131 -337v-536q0 -209 -131 -337t-346 -128zM635 78
q166 0 267.5 100.5t101.5 265.5v543q0 164 -101.5 265.5t-267.5 101.5q-164 0 -264.5 -101.5t-100.5 -265.5v-543q0 -166 100 -266t265 -100z" />
    <glyph glyph-name="omacron" unicode="&#x14d;" horiz-adv-x="1103" 
d="M307 1241q-10 0 -17 7t-7 18v32q0 11 7 18t17 7h488q10 0 17 -7t7 -18v-32q0 -11 -7 -18t-17 -7h-488zM553 -16q-146 0 -247.5 75t-137.5 203q-25 85 -25 256q0 159 23 254q36 126 138.5 201.5t248.5 75.5q145 0 248 -75.5t137 -201.5q23 -87 23 -254q0 -169 -23 -256
q-34 -127 -137.5 -202.5t-247.5 -75.5zM553 80q109 0 185 59.5t100 159.5q12 56 12 217q0 163 -12 217q-24 100 -100 159.5t-187 59.5t-186 -59.5t-99 -159.5q-12 -54 -12 -217t12 -217q24 -101 99.5 -160t187.5 -59z" />
    <glyph glyph-name="Ohungarumlaut" unicode="&#x150;" horiz-adv-x="1273" 
d="M442 1597q-13 0 -17.5 8.5t1.5 20.5l115 217q9 19 28 19h54q13 0 17.5 -8.5t-1.5 -20.5l-123 -219q-10 -17 -31 -17h-43zM766 1597q-13 0 -17.5 8.5t1.5 20.5l118 219q10 17 31 17h49q13 0 18 -8.5t-1 -20.5l-123 -219q-10 -17 -31 -17h-45zM635 -16q-214 0 -343.5 128
t-129.5 337v536q0 209 129.5 337t343.5 128q215 0 346 -128t131 -337v-536q0 -209 -131 -337t-346 -128zM635 78q166 0 267.5 100.5t101.5 265.5v543q0 164 -101.5 265.5t-267.5 101.5q-164 0 -264.5 -101.5t-100.5 -265.5v-543q0 -166 100 -266t265 -100z" />
    <glyph glyph-name="ohungarumlaut" unicode="&#x151;" horiz-adv-x="1103" 
d="M358 1196q-13 0 -17.5 8.5t1.5 20.5l115 217q9 18 28 18h54q13 0 17.5 -8t-1.5 -20l-123 -220q-10 -16 -31 -16h-43zM682 1196q-13 0 -17.5 8.5t1.5 20.5l118 219q10 16 31 16h49q13 0 18 -8t-1 -20l-123 -220q-10 -16 -31 -16h-45zM553 -16q-146 0 -247.5 75t-137.5 203
q-25 85 -25 256q0 159 23 254q36 126 138.5 201.5t248.5 75.5q145 0 248 -75.5t137 -201.5q23 -87 23 -254q0 -169 -23 -256q-34 -127 -137.5 -202.5t-247.5 -75.5zM553 80q109 0 185 59.5t100 159.5q12 56 12 217q0 163 -12 217q-24 100 -100 159.5t-187 59.5t-186 -59.5
t-99 -159.5q-12 -54 -12 -217t12 -217q24 -101 99.5 -160t187.5 -59z" />
    <glyph glyph-name="OE" unicode="&#x152;" horiz-adv-x="1878" 
d="M1749 1362q0 -10 -7.5 -17.5t-17.5 -7.5h-671q-9 0 -9 -8v-553q0 -8 9 -8h448q11 0 18 -7t7 -18v-47q0 -10 -7 -17t-18 -7h-448q-9 0 -9 -8v-560q0 -8 9 -8h671q11 0 18 -7t7 -17v-47q0 -11 -7.5 -18t-17.5 -7h-763q-11 0 -18 7t-7 18v112q0 5 -3 6.5t-7 -2.5
q-57 -75 -146.5 -116t-197.5 -41q-185 0 -302.5 121t-117.5 309v604q0 188 117.5 310t302.5 122q108 0 197.5 -41.5t146.5 -116.5q4 -4 7 -2.5t3 6.5v113q0 11 7 18t18 7h763q10 0 17.5 -7t7.5 -18v-47zM602 78q149 0 241.5 94.5t92.5 237.5v610q0 144 -92.5 239t-241.5 95
t-240.5 -94.5t-91.5 -239.5v-610q0 -143 92 -237.5t240 -94.5z" />
    <glyph glyph-name="oe" unicode="&#x153;" horiz-adv-x="1748" 
d="M1233 78q89 0 161 45.5t105 118.5q13 26 33 14l37 -18q21 -12 12 -33q-44 -102 -137.5 -161.5t-220.5 -59.5q-113 0 -201.5 50.5t-136.5 137.5q-7 10 -13 0q-49 -86 -137.5 -137t-199.5 -51q-140 0 -239.5 75.5t-133.5 202.5q-19 74 -19 256q0 176 19 254
q33 125 133.5 201t239.5 76q110 0 198 -51t139 -138q6 -10 13 0q47 85 135.5 137t196.5 52q142 0 243.5 -77t134.5 -202q19 -72 19 -256q0 -27 -25 -27h-647q-8 0 -8 -8q0 -145 10 -180q21 -102 96.5 -161.5t192.5 -59.5zM809 299q10 43 10 217q0 176 -10 217
q-19 98 -93 158.5t-181 60.5q-106 0 -178 -60.5t-93 -158.5q-12 -52 -12 -217t12 -217q21 -100 92.5 -159.5t178.5 -59.5t181 60.5t93 158.5zM944 733q-10 -55 -10 -158q0 -8 8 -8h553q8 0 8 8q0 103 -10 158q-21 98 -94.5 158.5t-181.5 60.5q-106 0 -179 -60.5t-94 -158.5z
" />
    <glyph glyph-name="Racute" unicode="&#x154;" horiz-adv-x="1253" 
d="M758 1849q14 0 18.5 -7.5t-2.5 -20.5l-131 -219q-9 -17 -29 -17h-47q-13 0 -17.5 8.5t1.5 20.5l121 219q10 16 30 16h56zM1063 0q-20 0 -29 18l-315 652q-3 6 -8 6h-385q-9 0 -9 -8v-643q0 -11 -7 -18t-17 -7h-60q-10 0 -17 7t-7 18v1388q0 11 7 18t17 7h512
q172 0 277.5 -106.5t105.5 -278.5q0 -147 -80.5 -246.5t-216.5 -122.5q-9 -3 -6 -10l314 -645q6 -13 0.5 -21t-19.5 -8h-57zM326 1339q-9 0 -9 -8v-557q0 -8 9 -8h409q127 0 206 79t79 206q0 130 -78.5 209t-206.5 79h-409z" />
    <glyph glyph-name="racute" unicode="&#x155;" horiz-adv-x="735" 
d="M584 1464q14 0 18.5 -7t-2.5 -21l-131 -219q-9 -17 -29 -17h-47q-13 0 -17.5 8.5t1.5 20.5l121 219q10 16 30 16h56zM567 1040q64 0 117 -22q18 -9 12 -31l-16 -59q-6 -24 -31 -15q-48 15 -98 13q-114 -1 -189 -86.5t-75 -208.5v-606q0 -11 -7.5 -18t-17.5 -7h-59
q-11 0 -18 7t-7 18v983q0 10 7 17t18 7h59q11 0 18 -7t7 -17v-136q0 -6 3 -7t4 3q1 1 1 2q92 170 272 170z" />
    <glyph glyph-name="uni0156" unicode="&#x156;" horiz-adv-x="1253" 
d="M831 684q-9 -3 -6 -10l314 -645q6 -13 0.5 -21t-19.5 -8h-57q-20 0 -29 18l-315 652q-3 6 -8 6h-385q-9 0 -9 -8v-643q0 -11 -7 -18t-17 -7h-60q-10 0 -17 7t-7 18v1388q0 11 7 18t17 7h512q172 0 277.5 -106.5t105.5 -278.5q0 -147 -80.5 -246.5t-216.5 -122.5z
M326 1339q-9 0 -9 -8v-557q0 -8 9 -8h409q127 0 206 79t79 206q0 130 -78.5 209t-206.5 79h-409zM543 -385q-13 0 -18 8.5t1 20.5l121 219q10 16 31 16h55q14 0 19 -7.5t-2 -21.5l-132 -219q-8 -16 -28 -16h-47z" />
    <glyph glyph-name="uni0157" unicode="&#x157;" horiz-adv-x="741" 
d="M567 1040q64 0 117 -22q18 -9 12 -31l-16 -59q-6 -24 -31 -15q-48 15 -98 13q-114 -1 -189 -86.5t-75 -208.5v-606q0 -11 -7.5 -18t-17.5 -7h-59q-11 0 -18 7t-7 18v983q0 10 7 17t18 7h59q11 0 18 -7t7 -17v-136q0 -6 3 -7t4 3q1 1 1 2q92 170 272 170zM61 -385
q-13 0 -17.5 8.5t1.5 20.5l121 219q10 16 31 16h55q14 0 18.5 -7.5t-2.5 -21.5l-131 -219q-8 -16 -28 -16h-48z" />
    <glyph glyph-name="Rcaron" unicode="&#x158;" horiz-adv-x="1253" 
d="M680 1577q-11 -14 -29 -14h-69q-18 0 -29 14l-160 213q-9 12 -4.5 21.5t19.5 9.5h41q18 0 30 -15l133 -176q2 -3 7 -3t6 3l133 176q12 15 28 15h41q15 0 19.5 -9.5t-4.5 -21.5zM1063 0q-20 0 -29 18l-315 652q-3 6 -8 6h-385q-9 0 -9 -8v-643q0 -11 -7 -18t-17 -7h-60
q-10 0 -17 7t-7 18v1388q0 11 7 18t17 7h512q172 0 277.5 -106.5t105.5 -278.5q0 -147 -80.5 -246.5t-216.5 -122.5q-9 -3 -6 -10l314 -645q6 -13 0.5 -21t-19.5 -8h-57zM326 1339q-9 0 -9 -8v-557q0 -8 9 -8h409q127 0 206 79t79 206q0 130 -78.5 209t-206.5 79h-409z" />
    <glyph glyph-name="rcaron" unicode="&#x159;" horiz-adv-x="735" 
d="M506 1192q-11 -14 -29 -14h-69q-18 0 -29 14l-160 213q-9 12 -5 21.5t19 9.5h41q19 0 31 -15l133 -176q2 -3 7 -3t6 3l133 176q12 15 28 15h41q15 0 19.5 -9.5t-4.5 -21.5zM567 1040q64 0 117 -22q18 -9 12 -31l-16 -59q-6 -24 -31 -15q-48 15 -98 13q-114 -1 -189 -86.5
t-75 -208.5v-606q0 -11 -7.5 -18t-17.5 -7h-59q-11 0 -18 7t-7 18v983q0 10 7 17t18 7h59q11 0 18 -7t7 -17v-136q0 -6 3 -7t4 3q1 1 1 2q92 170 272 170z" />
    <glyph glyph-name="Sacute" unicode="&#x15a;" horiz-adv-x="1196" 
d="M537 1602q-13 0 -18 8t1 20l121 219q10 17 31 17h55q14 0 18.5 -8t-2.5 -21l-131 -219q-8 -16 -28 -16h-47zM608 -16q-222 0 -351.5 101t-129.5 271v64q0 10 7 17t18 7h55q11 0 17.5 -7t6.5 -17v-58q0 -126 104 -204t283 -78q170 0 259.5 71t89.5 195q0 111 -86.5 183.5
t-309.5 166.5q-54 23 -82 35t-73 32.5t-68 34t-56.5 35.5t-50.5 40.5t-37.5 44t-30 52.5t-16.5 60t-7 70q0 168 115 259t321 91q224 0 350.5 -102t126.5 -275v-43q0 -10 -7 -17t-18 -7h-59q-11 0 -18 7t-7 17v37q0 128 -98 207.5t-276 79.5q-156 0 -240 -64.5t-84 -185.5
q0 -36 8.5 -66t20.5 -53t39.5 -46.5t51 -39.5t71 -38.5t83 -37t101.5 -41.5q112 -46 184.5 -84t136 -89t93.5 -114.5t30 -144.5q0 -165 -122.5 -265.5t-344.5 -100.5z" />
    <glyph glyph-name="sacute" unicode="&#x15b;" horiz-adv-x="978" 
d="M442 1192q-13 0 -17.5 8.5t1.5 20.5l121 219q10 16 31 16h55q14 0 18.5 -8t-2.5 -21l-131 -219q-8 -16 -29 -16h-47zM500 -10q-165 0 -270 77.5t-105 190.5v23q0 10 7 17t18 7h57q24 0 24 -20v-23q0 -75 75.5 -129.5t191.5 -54.5t188 54.5t72 137.5q0 34 -15 62t-35.5 46
t-60 35.5t-68.5 27.5t-81 25q-11 3 -17 5q-48 15 -75 23.5t-69.5 25t-67 31t-54.5 37.5t-46 47.5t-27 58t-11 72.5q0 125 100 199.5t261 74.5q164 0 265 -77t101 -195v-2q0 -11 -7 -18t-17 -7h-56q-24 0 -24 15v12q0 77 -72.5 129.5t-192.5 52.5q-115 0 -184 -48.5
t-69 -129.5q0 -33 15 -60.5t35.5 -45.5t60.5 -36.5t70.5 -28.5t84.5 -26q42 -12 59 -17.5t56 -18.5t57.5 -21t50.5 -24t47.5 -30t37 -35t31.5 -43t17.5 -50t7.5 -60q0 -128 -100.5 -207t-265.5 -79z" />
    <glyph glyph-name="Scedilla" unicode="&#x15e;" horiz-adv-x="1196" 
d="M1075 350q0 -157 -110.5 -255.5t-313.5 -110.5q-5 0 -5.5 -3t3.5 -8q132 -112 103 -233q-14 -58 -56.5 -88.5t-91.5 -32t-98 5.5q-22 6 -19 29l5 22q7 25 30 19q56 -11 97 6t51 68q11 55 -21.5 110.5t-93.5 102.5q-2 4 -10 4q-195 15 -306.5 114t-111.5 256v64q0 10 7 17
t18 7h55q11 0 17.5 -7t6.5 -17v-58q0 -126 104 -204t283 -78q170 0 259.5 71t89.5 195q0 111 -86.5 183.5t-309.5 166.5q-54 23 -82 35t-73 32.5t-68 34t-56.5 35.5t-50.5 40.5t-37.5 44t-30 52.5t-16.5 60t-7 70q0 168 115 259t321 91q224 0 350.5 -102t126.5 -275v-43
q0 -10 -7 -17t-18 -7h-59q-11 0 -18 7t-7 17v37q0 128 -98 207.5t-276 79.5q-156 0 -240 -64.5t-84 -185.5q0 -36 8.5 -66t20.5 -53t39.5 -46.5t51 -39.5t71 -38.5t83 -37t101.5 -41.5q112 -46 184.5 -84t136 -89t93.5 -114.5t30 -144.5z" />
    <glyph glyph-name="scedilla" unicode="&#x15f;" horiz-adv-x="978" 
d="M866 276q0 -117 -84.5 -193.5t-226.5 -88.5q-11 -3 -4 -10q133 -116 104 -238q-14 -58 -56 -88.5t-91 -32t-98 5.5q-22 6 -19 29l4 23q7 24 31 18q56 -11 96.5 6t50.5 68q22 105 -114 213q-2 4 -10 4q-145 12 -234.5 87.5t-89.5 178.5v23q0 10 7 17t18 7h57q24 0 24 -20
v-23q0 -75 75.5 -129.5t191.5 -54.5t188 54.5t72 137.5q0 34 -15 62t-35.5 46t-60 35.5t-68.5 27.5t-81 25q-11 3 -17 5q-48 15 -75 23.5t-69.5 25t-67 31t-54.5 37.5t-46 47.5t-27 58t-11 72.5q0 125 100 199.5t261 74.5q164 0 265 -77t101 -195v-2q0 -11 -7 -18t-17 -7
h-56q-24 0 -24 15v12q0 77 -72.5 129.5t-192.5 52.5q-115 0 -184 -48.5t-69 -129.5q0 -33 15 -60.5t35.5 -45.5t60.5 -36.5t70.5 -28.5t84.5 -26q42 -12 59 -17.5t56 -18.5t57.5 -21t50.5 -24t47.5 -30t37 -35t31.5 -43t17.5 -50t7.5 -60z" />
    <glyph glyph-name="Scaron" unicode="&#x160;" horiz-adv-x="1196" 
d="M551 1579q-18 0 -29 14l-160 213q-9 12 -4.5 21.5t19.5 9.5h41q20 0 31 -14l133 -176q2 -3 6 -3t6 3l133 176q11 14 29 14h41q15 0 19 -9.5t-5 -21.5l-162 -213q-11 -14 -28 -14h-70zM608 -16q-222 0 -351.5 101t-129.5 271v64q0 10 7 17t18 7h55q11 0 17.5 -7t6.5 -17
v-58q0 -126 104 -204t283 -78q170 0 259.5 71t89.5 195q0 111 -86.5 183.5t-309.5 166.5q-54 23 -82 35t-73 32.5t-68 34t-56.5 35.5t-50.5 40.5t-37.5 44t-30 52.5t-16.5 60t-7 70q0 168 115 259t321 91q224 0 350.5 -102t126.5 -275v-43q0 -10 -7 -17t-18 -7h-59
q-11 0 -18 7t-7 17v37q0 128 -98 207.5t-276 79.5q-156 0 -240 -64.5t-84 -185.5q0 -36 8.5 -66t20.5 -53t39.5 -46.5t51 -39.5t71 -38.5t83 -37t101.5 -41.5q112 -46 184.5 -84t136 -89t93.5 -114.5t30 -144.5q0 -165 -122.5 -265.5t-344.5 -100.5z" />
    <glyph glyph-name="scaron" unicode="&#x161;" horiz-adv-x="978" 
d="M457 1169q-17 0 -29 15l-160 213q-9 12 -4.5 21t19.5 9h41q19 0 30 -14l133 -176q1 -3 6 -3t7 3l133 176q11 14 29 14h40q15 0 19.5 -9t-4.5 -21l-162 -213q-12 -15 -29 -15h-69zM500 -10q-165 0 -270 77.5t-105 190.5v23q0 10 7 17t18 7h57q24 0 24 -20v-23
q0 -75 75.5 -129.5t191.5 -54.5t188 54.5t72 137.5q0 34 -15 62t-35.5 46t-60 35.5t-68.5 27.5t-81 25q-11 3 -17 5q-48 15 -75 23.5t-69.5 25t-67 31t-54.5 37.5t-46 47.5t-27 58t-11 72.5q0 125 100 199.5t261 74.5q164 0 265 -77t101 -195v-2q0 -11 -7 -18t-17 -7h-56
q-24 0 -24 15v12q0 77 -72.5 129.5t-192.5 52.5q-115 0 -184 -48.5t-69 -129.5q0 -33 15 -60.5t35.5 -45.5t60.5 -36.5t70.5 -28.5t84.5 -26q42 -12 59 -17.5t56 -18.5t57.5 -21t50.5 -24t47.5 -30t37 -35t31.5 -43t17.5 -50t7.5 -60q0 -128 -100.5 -207t-265.5 -79z" />
    <glyph glyph-name="uni0162" unicode="&#x162;" horiz-adv-x="1157" 
d="M631 1337q-8 0 -8 -8v-1311v-18q0 -2 2 -4q138 -113 108 -240q-14 -57 -56.5 -88t-91.5 -32t-98 6q-21 6 -18 28l4 23q7 24 31 18q56 -11 96.5 6t50.5 68q19 104 -112 211q-2 4 -11 4q-14 7 -14 25v1304q0 8 -8 8h-385q-11 0 -18 7.5t-7 17.5v47q0 11 7 18t18 7h915
q10 0 17.5 -7t7.5 -18v-47q0 -10 -7.5 -17.5t-17.5 -7.5h-405z" />
    <glyph glyph-name="uni0163" unicode="&#x163;" horiz-adv-x="735" 
d="M606 27q0 -25 -24 -25q-10 0 -29.5 -1t-28.5 -1q-69 0 -118.5 11.5t-90 39t-61 79.5t-21.5 128v674q0 8 -8 8h-119q-10 0 -17 7t-7 18v43q0 10 7 17t17 7h119q8 0 8 8v230q0 10 7 17t18 7h57q11 0 18 -7t7 -17v-230q0 -8 8 -8h236q10 0 17 -7t7 -17v-43q0 -11 -7 -18
t-17 -7h-236q-8 0 -8 -8v-645q0 -104 48 -146.5t151 -42.5h43q10 0 17 -7t7 -17v-47zM479 -6q19 0 31 -10q144 -119 115 -246q-14 -58 -56.5 -88.5t-91.5 -32t-98 5.5q-22 6 -19 29l5 22q7 25 30 19q56 -11 97 6t51 68q18 94 -97 198q-13 11 -9.5 20t20.5 9h22z" />
    <glyph glyph-name="Tcaron" unicode="&#x164;" horiz-adv-x="1157" 
d="M631 1561q-12 -15 -29 -15h-70q-16 0 -28 15l-160 213q-9 12 -5 21t19 9h41q20 0 31 -14l133 -176q1 -3 6 -3t6 3l134 176q11 14 28 14h41q15 0 19.5 -9t-4.5 -21zM1036 1434q10 0 17.5 -7t7.5 -18v-47q0 -10 -7.5 -17.5t-17.5 -7.5h-405q-8 0 -8 -8v-1304
q0 -11 -7.5 -18t-17.5 -7h-59q-11 0 -18 7t-7 18v1304q0 8 -8 8h-385q-11 0 -18 7.5t-7 17.5v47q0 11 7 18t18 7h915z" />
    <glyph glyph-name="tcaron" unicode="&#x165;" horiz-adv-x="735" 
d="M350 1421q-11 -14 -28 -14h-70q-18 0 -29 14l-160 213q-9 12 -4.5 21.5t19.5 9.5h41q20 0 31 -14l133 -176q1 -3 6 -3t6 3l133 176q11 14 29 14h41q15 0 19 -9.5t-5 -21.5zM608 965q0 -11 -7 -18t-17 -7h-236q-8 0 -8 -8v-645q0 -104 48 -146.5t151 -42.5h43q10 0 17 -7
t7 -17v-47q0 -25 -24 -25q-10 0 -29.5 -1t-28.5 -1q-69 0 -118.5 11.5t-90 39t-61 79.5t-21.5 128v674q0 8 -8 8h-119q-10 0 -17 7t-7 18v43q0 10 7 17t17 7h119q8 0 8 8v230q0 10 7 17t18 7h57q11 0 18 -7t7 -17v-230q0 -8 8 -8h236q10 0 17 -7t7 -17v-43z" />
    <glyph glyph-name="Tbar" unicode="&#x166;" horiz-adv-x="1228" 
d="M1061 1362q0 -10 -7.5 -17.5t-17.5 -7.5h-405q-8 0 -8 -8v-459q0 -8 8 -8h229q11 0 18 -7t7 -17v-29q0 -11 -7.5 -18t-17.5 -7h-229q-8 0 -8 -8v-751q0 -11 -7.5 -18t-17.5 -7h-59q-11 0 -18 7t-7 18v751q0 8 -8 8h-227q-11 0 -18 7t-7 18v29q0 10 7 17t18 7h227q8 0 8 8
v459q0 8 -8 8h-385q-11 0 -18 7.5t-7 17.5v47q0 11 7 18t18 7h915q10 0 17.5 -7t7.5 -18v-47z" />
    <glyph glyph-name="tbar" unicode="&#x167;" horiz-adv-x="1228" 
d="M608 965q0 -11 -7 -18t-17 -7h-236q-8 0 -8 -8v-209q0 -8 8 -8h230q10 0 17 -7t7 -18v-28q0 -11 -7 -18t-17 -7h-230q-8 0 -8 -8v-342q0 -104 48 -146.5t151 -42.5h43q10 0 17 -7t7 -17v-47q0 -25 -24 -25q-10 0 -29.5 -1t-28.5 -1q-69 0 -118.5 11.5t-90 39t-61 79.5
t-21.5 128v371q0 8 -8 8h-106q-11 0 -18 7.5t-7 17.5v28q0 10 7 17.5t18 7.5h106q8 0 8 8v209q0 8 -8 8h-119q-10 0 -17 7t-7 18v43q0 10 7 17t17 7h119q8 0 8 8v230q0 10 7 17t18 7h57q11 0 18 -7t7 -17v-230q0 -8 8 -8h236q10 0 17 -7t7 -17v-43z" />
    <glyph glyph-name="Umacron" unicode="&#x16a;" horiz-adv-x="1337" 
d="M424 1651q-11 0 -18 7t-7 17v33q0 10 7.5 17.5t17.5 7.5h487q11 0 18 -7.5t7 -17.5v-33q0 -10 -7 -17t-18 -7h-487zM668 -16q-214 0 -344.5 124t-130.5 326v975q0 11 7 18t17 7h59q10 0 17.5 -7t7.5 -18v-979q0 -157 101.5 -253.5t265.5 -96.5q165 0 265.5 96.5
t100.5 253.5v979q0 11 7 18t18 7h59q10 0 17.5 -7t7.5 -18v-975q0 -203 -130 -326.5t-345 -123.5z" />
    <glyph glyph-name="umacron" unicode="&#x16b;" horiz-adv-x="1095" 
d="M791 1307q10 0 17 -7t7 -18v-33q0 -11 -6.5 -17.5t-17.5 -6.5h-488q-11 0 -17.5 6.5t-6.5 17.5v33q0 11 7 18t17 7h488zM811 1008q0 10 7 17t18 7h57q11 0 18 -7t7 -17v-983q0 -11 -7 -18t-18 -7h-57q-10 0 -17.5 7t-7.5 18v96q0 6 -3.5 7t-6.5 -5q-89 -137 -287 -137
q-153 0 -252.5 90.5t-99.5 247.5v684q0 10 7 17t17 7h58q10 0 17 -7t7 -17v-656q0 -123 72.5 -196.5t194.5 -73.5q126 0 201 74t75 196v656z" />
    <glyph glyph-name="Uring" unicode="&#x16e;" horiz-adv-x="1337" 
d="M668 1595q-88 0 -148.5 60.5t-60.5 146.5t60.5 145.5t148.5 59.5t149.5 -59.5t61.5 -145.5t-61.5 -146.5t-149.5 -60.5zM668 1661q59 0 101 41t42 100q0 60 -42 101t-101 41t-100.5 -41t-41.5 -101t41.5 -100.5t100.5 -40.5zM668 -16q-214 0 -344.5 124t-130.5 326v975
q0 11 7 18t17 7h59q10 0 17.5 -7t7.5 -18v-979q0 -157 101.5 -253.5t265.5 -96.5q165 0 265.5 96.5t100.5 253.5v979q0 11 7 18t18 7h59q10 0 17.5 -7t7.5 -18v-975q0 -203 -130 -326.5t-345 -123.5z" />
    <glyph glyph-name="uring" unicode="&#x16f;" horiz-adv-x="1095" 
d="M547 1169q-88 0 -148.5 60.5t-60.5 146.5t60.5 145.5t148.5 59.5t149.5 -59.5t61.5 -145.5t-61.5 -146.5t-149.5 -60.5zM547 1518q-59 0 -100 -41t-41 -101t41 -100.5t100 -40.5t101 41t42 100q0 60 -42 101t-101 41zM811 1008q0 10 7 17t18 7h57q11 0 18 -7t7 -17v-983
q0 -11 -7 -18t-18 -7h-57q-10 0 -17.5 7t-7.5 18v96q0 6 -3.5 7t-6.5 -5q-89 -137 -287 -137q-153 0 -252.5 90.5t-99.5 247.5v684q0 10 7 17t17 7h58q10 0 17 -7t7 -17v-656q0 -123 72.5 -196.5t194.5 -73.5q126 0 201 74t75 196v656z" />
    <glyph glyph-name="Uhungarumlaut" unicode="&#x170;" horiz-adv-x="1337" 
d="M475 1606q-13 0 -17.5 8t1.5 20l114 217q9 19 29 19h53q13 0 18 -8.5t-1 -20.5l-123 -219q-10 -16 -31 -16h-43zM799 1606q-13 0 -18 8t1 20l119 219q10 17 31 17h49q13 0 17.5 -8.5t-1.5 -20.5l-123 -219q-10 -16 -30 -16h-45zM668 -16q-214 0 -344.5 124t-130.5 326
v975q0 11 7 18t17 7h59q10 0 17.5 -7t7.5 -18v-979q0 -157 101.5 -253.5t265.5 -96.5q165 0 265.5 96.5t100.5 253.5v979q0 11 7 18t18 7h59q10 0 17.5 -7t7.5 -18v-975q0 -203 -130 -326.5t-345 -123.5z" />
    <glyph glyph-name="uhungarumlaut" unicode="&#x171;" horiz-adv-x="1095" 
d="M535 1444q13 0 17.5 -8.5t-1.5 -20.5l-123 -219q-10 -16 -31 -16h-43q-13 0 -17.5 8t1.5 20l115 217q9 19 28 19h54zM860 1444q13 0 18 -8.5t-1 -20.5l-123 -219q-10 -16 -31 -16h-45q-13 0 -17.5 8t1.5 20l118 219q10 17 31 17h49zM811 1008q0 10 7 17t18 7h57
q11 0 18 -7t7 -17v-983q0 -11 -7 -18t-18 -7h-57q-10 0 -17.5 7t-7.5 18v96q0 6 -3.5 7t-6.5 -5q-89 -137 -287 -137q-153 0 -252.5 90.5t-99.5 247.5v684q0 10 7 17t17 7h58q10 0 17 -7t7 -17v-656q0 -123 72.5 -196.5t194.5 -73.5q126 0 201 74t75 196v656z" />
    <glyph glyph-name="Uogonek" unicode="&#x172;" horiz-adv-x="1337" 
d="M1034 1409q0 11 7 18t18 7h59q10 0 17.5 -7t7.5 -18v-975q0 -195 -120.5 -317t-320.5 -133q-6 0 -10 -4q-111 -100 -92 -193q10 -51 51 -68t97 -6q21 5 28 -18l4 -21q7 -24 -16 -30q-49 -7 -98 -6t-91.5 32t-56.5 88q-26 115 84 219q10 7 -2 11q-187 20 -297 140.5
t-110 305.5v975q0 11 7 18t17 7h59q10 0 17.5 -7t7.5 -18v-979q0 -157 101.5 -253.5t265.5 -96.5q165 0 265.5 96.5t100.5 253.5v979z" />
    <glyph glyph-name="uogonek" unicode="&#x173;" horiz-adv-x="1099" 
d="M936 -301q22 6 29 -18l4 -21q7 -24 -17 -31q-49 -7 -98 -5.5t-91 32t-56 88.5q-30 134 120 250q5 6 -2 8q-14 7 -14 23v96q0 6 -3.5 7t-6.5 -5q-89 -137 -287 -137q-153 0 -252.5 90.5t-99.5 247.5v684q0 10 7 17t17 7h58q10 0 17 -7t7 -17v-656q0 -123 72.5 -196.5
t194.5 -73.5q126 0 201 74t75 196v656q0 10 7 17t18 7h57q11 0 18 -7t7 -17v-1002q0 -8 -5 -10q-3 -4 -28 -25q-115 -104 -97 -198q10 -51 51 -68t97 -6z" />
    <glyph glyph-name="Wcircumflex" unicode="&#x174;" horiz-adv-x="1792" 
d="M678 1569q-15 0 -19 9t5 21l163 213q12 15 31 15h64q18 0 30 -15l166 -213q9 -12 4 -21t-20 -9h-43q-18 0 -29 14l-131 176q-1 3 -6 3t-6 -3l-133 -176q-11 -14 -31 -14h-45zM483 0q-21 0 -28 20l-398 1387q-6 27 21 27h63q22 0 29 -21l338 -1190q2 -5 5 -5t5 5l311 1190
q6 21 29 21h66q22 0 28 -21l324 -1190q2 -5 5 -5t5 5l340 1190q7 21 29 21h59q27 0 21 -27l-398 -1387q-7 -20 -28 -20h-64q-22 0 -28 20l-320 1213q-1 3 -2.5 4t-3 0t-2.5 -4l-318 -1213q-6 -20 -28 -20h-60z" />
    <glyph glyph-name="wcircumflex" unicode="&#x175;" horiz-adv-x="1443" 
d="M500 1167q-15 0 -19.5 9.5t4.5 21.5l164 213q11 14 31 14h63q20 0 31 -14l166 -213q9 -12 4 -21.5t-20 -9.5h-43q-17 0 -29 15l-131 176q-1 3 -6 3t-6 -3l-134 -176q-12 -15 -30 -15h-45zM387 0q-22 0 -29 20l-284 984q-3 12 2.5 20t17.5 8h60q22 0 28 -20l234 -852
q2 -4 5 -4t5 4l236 852q7 20 28 20h58q21 0 28 -20l238 -850q2 -4 6 -4t6 4l236 850q6 20 28 20l60 -2q26 0 20 -26l-289 -984q-7 -20 -26 -20h-64q-21 0 -28 20l-238 816q-1 4 -6 4t-6 -4l-234 -816q-7 -20 -28 -20h-64z" />
    <glyph glyph-name="Ycircumflex" unicode="&#x176;" horiz-adv-x="1134" 
d="M352 1567q-15 0 -19 9t5 21l164 213q12 15 30 15h64q19 0 31 -15l166 -213q9 -12 3.5 -21t-20.5 -9h-43q-17 0 -28 14l-132 176q-1 3 -6 3t-6 -3l-133 -176q-11 -14 -31 -14h-45zM539 0q-11 0 -18 7t-7 18v626q0 9 -2 11l-426 743q-7 13 -1.5 21t19.5 8h60q21 0 31 -17
l366 -641q1 -3 6 -3t6 3l367 641q10 17 31 17h59q14 0 20 -8t-1 -21l-426 -743q-2 -2 -2 -11v-626q0 -11 -7.5 -18t-17.5 -7h-57z" />
    <glyph glyph-name="ycircumflex" unicode="&#x177;" horiz-adv-x="919" 
d="M246 1171q-15 0 -19.5 9.5t4.5 21.5l164 213q12 15 31 15h63q19 0 31 -15l166 -213q9 -12 4 -21.5t-20 -9.5h-43q-17 0 -29 15l-131 176q-1 3 -6 3t-6 -3l-133 -176q-12 -15 -31 -15h-45zM121 -410q-6 0 -10.5 7.5t-4.5 17.5v45q0 10 4.5 17.5t10.5 7.5h14q60 1 96 12.5
t67.5 49t54 91t55.5 156.5q4 8 0 12l-349 998q-4 13 2 20.5t19 7.5h61q20 0 27 -20l291 -854q1 -4 6 -4t6 4l281 854q7 20 26 20h64q13 0 18.5 -7.5t1.5 -20.5l-385 -1108q-35 -100 -64 -157t-69 -92t-86.5 -46t-122.5 -11h-14z" />
    <glyph glyph-name="Ydieresis" unicode="&#x178;" horiz-adv-x="1134" 
d="M401 1642q-37 0 -61.5 23.5t-24.5 60.5q0 34 25 58t61 24t60 -24t24 -58q0 -37 -23.5 -60.5t-60.5 -23.5zM735 1642q-38 0 -63 23.5t-25 60.5q0 34 25 58t63 24q35 0 58.5 -24t23.5 -58q0 -37 -23.5 -60.5t-58.5 -23.5zM539 0q-11 0 -18 7t-7 18v626q0 9 -2 11l-426 743
q-7 13 -1.5 21t19.5 8h60q21 0 31 -17l366 -641q1 -3 6 -3t6 3l367 641q10 17 31 17h59q14 0 20 -8t-1 -21l-426 -743q-2 -2 -2 -11v-626q0 -11 -7.5 -18t-17.5 -7h-57z" />
    <glyph glyph-name="Zacute" unicode="&#x179;" horiz-adv-x="1120" 
d="M492 1612q-13 0 -18 8t1 20l121 220q10 16 31 16h55q14 0 18.5 -8t-2.5 -21l-131 -219q-8 -16 -28 -16h-47zM123 0q-11 0 -18 7t-7 18v59q0 18 8 31l773 1212q3 3 0.5 6.5t-7.5 3.5h-749q-11 0 -18 7.5t-7 17.5v47q0 11 7 18t18 7h856q11 0 18 -7t7 -18v-59q0 -16 -9 -31
l-770 -1213q-3 -3 -1 -6.5t7 -3.5h748q11 0 18 -7t7 -17v-47q0 -11 -7 -18t-18 -7h-856z" />
    <glyph glyph-name="zacute" unicode="&#x17a;" horiz-adv-x="905" 
d="M395 1202q-13 0 -17.5 8.5t1.5 20.5l121 219q10 16 30 16h56q14 0 18.5 -7t-2.5 -21l-131 -219q-9 -17 -29 -17h-47zM98 0q-10 0 -17 7t-7 18v59q0 18 10 31l608 807q3 3 1.5 6.5t-5.5 3.5h-582q-10 0 -17 7t-7 17v52q0 10 7 17t17 7h697q11 0 17.5 -7t6.5 -17v-60
q0 -17 -10 -30l-614 -807q-3 -3 -1.5 -7t5.5 -4h594q11 0 17.5 -7t6.5 -17v-51q0 -11 -7 -18t-17 -7h-703z" />
    <glyph glyph-name="Zdotaccent" unicode="&#x17b;" horiz-adv-x="1120" 
d="M543 1638q-37 0 -60.5 22.5t-23.5 57.5q0 34 23.5 56t60.5 22q34 0 56 -22t22 -56q0 -35 -22 -57.5t-56 -22.5zM123 0q-11 0 -18 7t-7 18v59q0 18 8 31l773 1212q3 3 0.5 6.5t-7.5 3.5h-749q-11 0 -18 7.5t-7 17.5v47q0 11 7 18t18 7h856q11 0 18 -7t7 -18v-59
q0 -16 -9 -31l-770 -1213q-3 -3 -1 -6.5t7 -3.5h748q11 0 18 -7t7 -17v-47q0 -11 -7 -18t-18 -7h-856z" />
    <glyph glyph-name="zdotaccent" unicode="&#x17c;" horiz-adv-x="905" 
d="M446 1229q-37 0 -60.5 22.5t-23.5 57.5q0 34 23.5 55.5t60.5 21.5q34 0 56 -21.5t22 -55.5q0 -35 -22 -57.5t-56 -22.5zM98 0q-10 0 -17 7t-7 18v59q0 18 10 31l608 807q3 3 1.5 6.5t-5.5 3.5h-582q-10 0 -17 7t-7 17v52q0 10 7 17t17 7h697q11 0 17.5 -7t6.5 -17v-60
q0 -17 -10 -30l-614 -807q-3 -3 -1.5 -7t5.5 -4h594q11 0 17.5 -7t6.5 -17v-51q0 -11 -7 -18t-17 -7h-703z" />
    <glyph glyph-name="Zcaron" unicode="&#x17d;" horiz-adv-x="1120" 
d="M506 1589q-17 0 -29 15l-160 213q-9 12 -4.5 21t19.5 9h41q19 0 30 -14l134 -176q1 -3 6 -3t6 3l133 176q11 14 29 14h41q15 0 19 -9t-5 -21l-162 -213q-12 -15 -29 -15h-69zM123 0q-11 0 -18 7t-7 18v59q0 18 8 31l773 1212q3 3 0.5 6.5t-7.5 3.5h-749q-11 0 -18 7.5
t-7 17.5v47q0 11 7 18t18 7h856q11 0 18 -7t7 -18v-59q0 -16 -9 -31l-770 -1213q-3 -3 -1 -6.5t7 -3.5h748q11 0 18 -7t7 -17v-47q0 -11 -7 -18t-18 -7h-856z" />
    <glyph glyph-name="zcaron" unicode="&#x17e;" horiz-adv-x="905" 
d="M410 1180q-18 0 -29 14l-160 213q-9 12 -4.5 21.5t19.5 9.5h40q19 0 31 -15l133 -176q2 -3 7 -3t6 3l133 176q12 15 28 15h41q15 0 19.5 -9.5t-4.5 -21.5l-162 -213q-11 -14 -29 -14h-69zM98 0q-10 0 -17 7t-7 18v59q0 18 10 31l608 807q3 3 1.5 6.5t-5.5 3.5h-582
q-10 0 -17 7t-7 17v52q0 10 7 17t17 7h697q11 0 17.5 -7t6.5 -17v-60q0 -17 -10 -30l-614 -807q-3 -3 -1.5 -7t5.5 -4h594q11 0 17.5 -7t6.5 -17v-51q0 -11 -7 -18t-17 -7h-703z" />
    <glyph glyph-name="florin" unicode="&#x192;" horiz-adv-x="1116" 
d="M588 1098q17 104 42.5 166.5t74.5 101t116.5 52.5t177.5 16q25 0 25 -25v-47q0 -10 -7 -17.5t-18 -7.5h-57q-63 0 -106.5 -14.5t-71.5 -47t-43.5 -75t-26.5 -106.5l-43 -283q0 -8 6 -8h195q10 0 17.5 -7.5t7.5 -17.5v-51q0 -11 -7.5 -18t-17.5 -7h-211q-10 0 -10 -8
l-121 -768q-17 -104 -42.5 -167t-75 -101t-117 -52t-177.5 -16q-24 0 -24 25v47q0 11 7 18t17 7h58q63 0 106.5 14.5t71 47t43 74.5t26.5 107l121 764q0 8 -6 8h-156q-10 0 -17 7t-7 18v51q0 11 7 18t17 7h170q11 0 11 8z" />
    <glyph glyph-name="uni01CD" unicode="&#x1cd;" horiz-adv-x="1208" 
d="M664 1561q-12 -15 -29 -15h-70q-16 0 -28 15l-160 213q-9 12 -5 21t19 9h41q20 0 31 -14l133 -176q2 -3 6 -3t6 3l133 176q11 14 29 14h41q15 0 19 -9t-5 -21zM1047 0q-20 0 -27 20l-88 269q-2 6 -8 6h-639q-7 0 -9 -6l-86 -269q-7 -20 -26 -20h-66q-12 0 -18 8t-2 21
l454 1384q7 21 27 21h88q20 0 27 -21l456 -1384q4 -13 -2 -21t-18 -8h-63zM309 395q-2 -3 1 -6.5t7 -3.5h574q4 0 7 3.5t1 6.5l-291 897q-2 4 -6 4t-6 -4z" />
    <glyph glyph-name="uni01CE" unicode="&#x1ce;" horiz-adv-x="1036" 
d="M586 1176q-12 -15 -29 -15h-70q-16 0 -28 15l-160 213q-9 12 -5 21t19 9h41q20 0 31 -14l133 -176q2 -3 6 -3t6 3l134 176q11 14 28 14h41q15 0 19.5 -9t-4.5 -21zM520 1049q180 0 274.5 -93t94.5 -251v-680q0 -11 -7.5 -18t-17.5 -7h-59q-11 0 -18 7t-7 18v88
q0 5 -3 6.5t-7 -2.5q-54 -65 -141.5 -99t-188.5 -34q-67 0 -125 16t-106.5 49t-76.5 90.5t-28 134.5q0 153 112.5 240.5t309.5 87.5h246q8 0 8 8v92q0 115 -63.5 182.5t-198.5 67.5q-104 0 -171.5 -41.5t-84.5 -113.5q-7 -24 -29 -21l-63 8q-26 4 -23 23q20 109 121 175.5
t252 66.5zM461 78q130 0 224.5 63t94.5 176v187q0 8 -8 8h-233q-147 0 -236.5 -61.5t-89.5 -169.5q0 -100 69.5 -151.5t178.5 -51.5z" />
    <glyph glyph-name="uni0218" unicode="&#x218;" horiz-adv-x="1196" 
d="M608 -16q-222 0 -351.5 101t-129.5 271v64q0 10 7 17t18 7h55q11 0 17.5 -7t6.5 -17v-58q0 -126 104 -204t283 -78q170 0 259.5 71t89.5 195q0 111 -86.5 183.5t-309.5 166.5q-54 23 -82 35t-73 32.5t-68 34t-56.5 35.5t-50.5 40.5t-37.5 44t-30 52.5t-16.5 60t-7 70
q0 168 115 259t321 91q224 0 350.5 -102t126.5 -275v-43q0 -10 -7 -17t-18 -7h-59q-11 0 -18 7t-7 17v37q0 128 -98 207.5t-276 79.5q-156 0 -240 -64.5t-84 -185.5q0 -36 8.5 -66t20.5 -53t39.5 -46.5t51 -39.5t71 -38.5t83 -37t101.5 -41.5q112 -46 184.5 -84t136 -89
t93.5 -114.5t30 -144.5q0 -165 -122.5 -265.5t-344.5 -100.5zM492 -401q-13 0 -18 8t1 20l121 219q10 17 31 17h55q14 0 18.5 -7.5t-2.5 -21.5l-131 -219q-8 -16 -28 -16h-47z" />
    <glyph glyph-name="uni0219" unicode="&#x219;" horiz-adv-x="978" 
d="M500 -10q-165 0 -270 77.5t-105 190.5v23q0 10 7 17t18 7h57q24 0 24 -20v-23q0 -75 75.5 -129.5t191.5 -54.5t188 54.5t72 137.5q0 34 -15 62t-35.5 46t-60 35.5t-68.5 27.5t-81 25q-11 3 -17 5q-48 15 -75 23.5t-69.5 25t-67 31t-54.5 37.5t-46 47.5t-27 58t-11 72.5
q0 125 100 199.5t261 74.5q164 0 265 -77t101 -195v-2q0 -11 -7 -18t-17 -7h-56q-24 0 -24 15v12q0 77 -72.5 129.5t-192.5 52.5q-115 0 -184 -48.5t-69 -129.5q0 -33 15 -60.5t35.5 -45.5t60.5 -36.5t70.5 -28.5t84.5 -26q42 -12 59 -17.5t56 -18.5t57.5 -21t50.5 -24
t47.5 -30t37 -35t31.5 -43t17.5 -50t7.5 -60q0 -128 -100.5 -207t-265.5 -79zM395 -395q-13 0 -17.5 8t1.5 20l121 220q10 16 30 16h56q14 0 18.5 -7.5t-2.5 -21.5l-131 -219q-8 -16 -29 -16h-47z" />
    <glyph glyph-name="uni021A" unicode="&#x21a;" horiz-adv-x="1165" 
d="M96 1409q0 11 7 18t18 7h915q10 0 17.5 -7t7.5 -18v-47q0 -10 -7.5 -17.5t-17.5 -7.5h-405q-8 0 -8 -8v-1304q0 -11 -7.5 -18t-17.5 -7h-59q-11 0 -18 7t-7 18v1304q0 8 -8 8h-385q-11 0 -18 7.5t-7 17.5v47zM401 -385q-13 0 -17.5 8.5t1.5 20.5l121 219q10 16 31 16h55
q14 0 18.5 -7.5t-2.5 -21.5l-131 -219q-8 -16 -28 -16h-48z" />
    <glyph glyph-name="uni021B" unicode="&#x21b;" horiz-adv-x="735" 
d="M608 965q0 -11 -7 -18t-17 -7h-236q-8 0 -8 -8v-645q0 -104 48 -146.5t151 -42.5h43q10 0 17 -7t7 -17v-47q0 -25 -24 -25q-10 0 -29.5 -1t-28.5 -1q-69 0 -118.5 11.5t-90 39t-61 79.5t-21.5 128v674q0 8 -8 8h-119q-10 0 -17 7t-7 18v43q0 10 7 17t17 7h119q8 0 8 8
v230q0 10 7 17t18 7h57q11 0 18 -7t7 -17v-230q0 -8 8 -8h236q10 0 17 -7t7 -17v-43zM365 -403q-13 0 -18 8t1 20l121 219q10 17 31 17h55q14 0 18.5 -7.5t-2.5 -21.5l-131 -219q-8 -16 -28 -16h-47z" />
    <glyph glyph-name="uni0228" unicode="&#x228;" horiz-adv-x="1251" 
d="M1122 1362q0 -11 -7 -18t-17 -7h-772q-9 0 -9 -8v-553q0 -8 9 -8h546q10 0 17.5 -7t7.5 -18v-47q0 -10 -7 -17t-18 -7h-546q-9 0 -9 -8v-560q0 -8 9 -8h772q10 0 17 -7t7 -17v-47q0 -11 -7 -18t-17 -7h-375q-5 0 -6.5 -3t2.5 -7q130 -112 100 -234q-14 -57 -56.5 -88
t-91.5 -32t-98 6q-21 6 -18 28l4 23q7 24 31 18q56 -11 96.5 6t50.5 68q19 104 -112 211q-2 4 -11 4h-381q-10 0 -17 7t-7 18v1384q0 11 7 18t17 7h865q10 0 17 -7t7 -18v-47z" />
    <glyph glyph-name="uni0229" unicode="&#x229;" horiz-adv-x="1087" 
d="M557 78q99 1 172 46t107 122q12 21 32 12l37 -14q25 -11 15 -33q-39 -93 -123 -153t-197 -70q-15 -4 -4 -11q133 -116 104 -237q-14 -58 -56 -88.5t-91 -32t-98 5.5q-22 6 -19 29l4 22q7 25 31 19q56 -11 96.5 6t50.5 68q11 55 -22 110.5t-94 102.5q-2 4 -10 4
q-118 13 -200 81.5t-118 176.5q-29 93 -29 274q0 179 17 246q33 130 134.5 207.5t248.5 77.5q163 0 263.5 -86t127.5 -236q14 -64 14 -219q0 -27 -24 -27h-666q-8 0 -8 -8q0 -130 10 -176q22 -99 100.5 -159t194.5 -60zM266 739q-11 -39 -14 -161q0 -9 8 -9h571q9 0 9 9
q0 98 -11 155q-22 99 -97 159t-187 60q-111 0 -184.5 -58.5t-94.5 -154.5z" />
    <glyph glyph-name="circumflex" unicode="&#x2c6;" horiz-adv-x="499" 
d="M37 1167q-15 0 -19 9.5t5 21.5l163 213q11 14 31 14h64q19 0 30 -14l166 -213q9 -12 4 -21.5t-20 -9.5h-43q-17 0 -29 15l-131 176q-2 3 -6 3t-6 -3l-133 -176q-12 -15 -31 -15h-45z" />
    <glyph glyph-name="caron" unicode="&#x2c7;" horiz-adv-x="624" 
d="M276 1165q-16 0 -28 15l-160 213q-9 12 -5 21t19 9h41q20 0 31 -14l133 -176q1 -3 6 -3t6 3l134 176q11 14 28 14h41q15 0 19.5 -9t-4.5 -21l-162 -213q-12 -15 -29 -15h-70z" />
    <glyph glyph-name="uni02C9" unicode="&#x2c9;" horiz-adv-x="536" 
d="M25 1225q-11 0 -18 7t-7 17v33q0 10 7 17.5t18 7.5h487q10 0 17.5 -7.5t7.5 -17.5v-33q0 -10 -7 -17t-18 -7h-487z" />
    <glyph glyph-name="breve" unicode="&#x2d8;" horiz-adv-x="563" 
d="M281 1147q-83 0 -143.5 53t-69.5 133q-3 25 22 25h23q23 0 26 -25q7 -52 48 -86.5t94 -34.5q54 0 95 34.5t48 86.5q3 25 27 25h22q26 0 23 -25q-9 -79 -70 -132.5t-145 -53.5z" />
    <glyph glyph-name="dotaccent" unicode="&#x2d9;" horiz-adv-x="290" 
d="M150 1210q-37 0 -60.5 22.5t-23.5 57.5q0 34 23.5 56t60.5 22q34 0 55.5 -22t21.5 -56q0 -35 -21.5 -57.5t-55.5 -22.5z" />
    <glyph glyph-name="ring" unicode="&#x2da;" horiz-adv-x="548" 
d="M274 1169q-88 0 -148 60.5t-60 146.5t60 145.5t148 59.5t149.5 -59.5t61.5 -145.5t-61.5 -146.5t-149.5 -60.5zM274 1235q59 0 101.5 41t42.5 100t-42.5 100.5t-101.5 41.5t-100 -41t-41 -101t41 -100.5t100 -40.5z" />
    <glyph glyph-name="ogonek" unicode="&#x2db;" horiz-adv-x="272" 
d="M268 -342q3 -23 -18 -29q-49 -7 -98 -5.5t-91.5 32t-56.5 88.5q-29 127 115 246q13 10 31 10h22q17 0 20.5 -9t-10.5 -20q-114 -103 -96 -198q10 -51 50.5 -68t96.5 -6q24 6 31 -18z" />
    <glyph glyph-name="tilde" unicode="&#x2dc;" horiz-adv-x="696" 
d="M457 1221q-53 0 -123 49q-21 16 -32 23t-27.5 13.5t-34.5 6.5q-32 0 -55 -11t-48 -42q-17 -20 -35 -7l-18 13q-21 15 -8 34q60 95 157 95q24 0 48.5 -8.5t35.5 -14.5t39 -24q3 -2 16 -10t18 -11t16.5 -9t18.5 -8.5t16.5 -4.5t17.5 -2q60 0 100 59q17 20 35 8l18 -12
q23 -15 2 -45q-31 -47 -74 -69.5t-83 -22.5z" />
    <glyph glyph-name="hungarumlaut" unicode="&#x2dd;" horiz-adv-x="712" 
d="M96 1200q-13 0 -17.5 8.5t1.5 20.5l119 219q10 16 30 16h56q14 0 18.5 -7t-2.5 -21l-129 -219q-8 -17 -29 -17h-47zM426 1200q-13 0 -17.5 8.5t1.5 20.5l118 219q10 16 31 16h55q14 0 19 -7t-2 -21l-129 -219q-8 -17 -29 -17h-47z" />
    <glyph glyph-name="gravecomb" unicode="&#x300;" 
d="M-16 1212q6 -12 1 -20t-18 -8h-47q-21 0 -29 16l-131 219q-7 13 -2 21t19 8h55q21 0 31 -16z" />
    <glyph glyph-name="acutecomb" unicode="&#x301;" 
d="M-346 1184q-13 0 -17.5 8t1.5 20l120 220q10 16 31 16h55q14 0 19 -8t-2 -21l-131 -219q-8 -16 -29 -16h-47z" />
    <glyph glyph-name="uni0302" unicode="&#x302;" 
d="M-463 1167q-15 0 -19 9.5t5 21.5l164 213q11 14 30 14h64q20 0 31 -14l165 -213q9 -12 4 -21.5t-20 -9.5h-43q-17 0 -29 15l-131 176q-2 3 -6 3t-6 -3l-133 -176q-12 -15 -31 -15h-45z" />
    <glyph glyph-name="tildecomb" unicode="&#x303;" 
d="M-182 1221q-53 0 -123 49q-21 16 -32 23t-27.5 13.5t-34.5 6.5q-32 0 -55 -11t-48 -42q-17 -20 -35 -7l-18 13q-21 15 -8 34q60 95 157 95q24 0 48.5 -8.5t35.5 -14.5t39 -24q3 -2 16 -10t18 -11t16.5 -9t18.5 -8.5t16.5 -4.5t17.5 -2q60 0 100 59q17 20 35 8l18 -12
q23 -15 2 -45q-31 -47 -74 -69.5t-83 -22.5z" />
    <glyph glyph-name="uni0304" unicode="&#x304;" 
d="M-512 1225q-11 0 -18 7t-7 17v33q0 10 7.5 17.5t17.5 7.5h487q11 0 18 -7.5t7 -17.5v-33q0 -10 -7 -17t-18 -7h-487z" />
    <glyph glyph-name="uni0306" unicode="&#x306;" 
d="M-283 1114q-83 0 -143.5 53t-69.5 133q-3 25 23 25h22q24 0 27 -25q7 -52 47.5 -86t93.5 -34q54 0 95.5 34t48.5 86q3 25 26 25h23q25 0 22 -25q-9 -80 -70 -133t-145 -53z" />
    <glyph glyph-name="uni0307" unicode="&#x307;" 
d="M-78 1210q-37 0 -60.5 22.5t-23.5 57.5q0 34 23.5 56t60.5 22q34 0 56 -22t22 -56q0 -35 -22 -57.5t-56 -22.5z" />
    <glyph glyph-name="uni0308" unicode="&#x308;" 
d="M-416 1243q-37 0 -61.5 23.5t-24.5 60.5q0 34 25 58t61 24t60 -24t24 -58q0 -37 -23.5 -60.5t-60.5 -23.5zM-82 1243q-38 0 -63 23.5t-25 60.5q0 34 25 58t63 24q35 0 58.5 -24t23.5 -58q0 -37 -23.5 -60.5t-58.5 -23.5z" />
    <glyph glyph-name="uni030A" unicode="&#x30a;" 
d="M-207 1169q-88 0 -148.5 60.5t-60.5 146.5t60.5 145.5t148.5 59.5t149.5 -59.5t61.5 -145.5t-61.5 -146.5t-149.5 -60.5zM-207 1235q59 0 101.5 41t42.5 100t-42.5 100.5t-101.5 41.5t-100 -41t-41 -101t41 -100.5t100 -40.5z" />
    <glyph glyph-name="uni030B" unicode="&#x30b;" 
d="M-602 1180q-13 0 -17.5 8t1.5 20l114 217q10 19 29 19h53q13 0 17.5 -8.5t-1.5 -20.5l-122 -219q-10 -16 -31 -16h-43zM-279 1180q-13 0 -17.5 8t1.5 20l119 219q10 17 31 17h49q13 0 17.5 -8.5t-1.5 -20.5l-123 -219q-10 -16 -30 -16h-46z" />
    <glyph glyph-name="uni030C" unicode="&#x30c;" 
d="M-348 1149q-18 0 -29 14l-160 213q-9 12 -4.5 21.5t19.5 9.5h41q19 0 30 -14l134 -176q1 -3 6 -3t6 3l133 176q11 14 29 14h41q15 0 19 -9.5t-5 -21.5l-162 -213q-11 -14 -29 -14h-69z" />
    <glyph glyph-name="uni0312" unicode="&#x312;" 
d="M-96 1417q13 0 17.5 -8t-1.5 -20l-121 -220q-10 -16 -30 -16h-56q-14 0 -18.5 7.5t2.5 21.5l131 219q8 16 29 16h47z" />
    <glyph glyph-name="uni0313" unicode="&#x313;" 
d="M-225 1184q-13 0 -18 8t1 20l121 220q10 16 31 16h55q14 0 19 -8t-2 -21l-132 -219q-8 -16 -28 -16h-47z" />
    <glyph glyph-name="uni0326" unicode="&#x326;" 
d="M-291 -385q-13 0 -17.5 8.5t1.5 20.5l121 219q10 16 30 16h56q14 0 18.5 -7.5t-2.5 -21.5l-131 -219q-8 -16 -29 -16h-47z" />
    <glyph glyph-name="uni0327" unicode="&#x327;" 
d="M-250 -371q-21 6 -18 29l4 23q7 24 31 18q56 -11 96.5 6t50.5 68q18 95 -96 198q-13 11 -11 20t17 9h26q18 0 31 -10q144 -119 115 -246q-14 -58 -56.5 -88.5t-91.5 -32t-98 5.5z" />
    <glyph glyph-name="uni0328" unicode="&#x328;" 
d="M-4 -342q3 -23 -19 -29q-49 -7 -98 -5.5t-91 32t-56 88.5q-29 128 114 246q12 10 31 10h23q17 0 20.5 -9t-10.5 -20q-114 -103 -96 -198q10 -51 50.5 -68t96.5 -6q24 6 31 -18z" />
    <glyph glyph-name="uni0335" unicode="&#x335;" 
d="M-631 1233q0 10 7 17t18 7h581q11 0 18 -7t7 -17v-29q0 -10 -7 -17t-18 -7h-581q-11 0 -18 7t-7 17v29z" />
    <glyph glyph-name="uni0336" unicode="&#x336;" 
d="M-1165 1059q-11 0 -18 7t-7 17v35q0 10 7 17.5t18 7.5h1140q11 0 18 -7.5t7 -17.5v-35q0 -10 -7 -17t-18 -7h-1140z" />
    <glyph glyph-name="uni0337" unicode="&#x337;" 
d="M-776 119q-18 -15 -33 4l-25 31q-15 18 5 34l878 643q21 17 35 -4l27 -32q13 -18 -7 -35z" />
    <glyph glyph-name="uni0338" unicode="&#x338;" 
d="M-793 -74q-14 0 -19 8t1 21l711 1548q8 19 28 19h41q14 0 19.5 -8t-0.5 -21l-711 -1548q-8 -19 -29 -19h-41z" />
    <glyph glyph-name="uni0394" unicode="&#x394;" horiz-adv-x="1294" 
d="M94 0q-10 0 -17 7t-7 18v55q0 13 6 31l518 1304q6 19 29 19h49q22 0 28 -19l519 -1306q6 -18 6 -31v-53q0 -11 -7.5 -18t-17.5 -7h-1106zM180 106q-2 -3 0 -6.5t6 -3.5h922q4 0 6 3.5t0 6.5l-461 1176q-1 6 -6 6t-6 -6z" />
    <glyph glyph-name="uni03A9" unicode="&#x3a9;" horiz-adv-x="1316" 
d="M186 0q-10 0 -17 7t-7 18v47q0 10 7 17t17 7h187q4 0 5.5 1.5t0.5 4t-4 4.5q-91 55 -142 150.5t-51 218.5v510q0 209 130.5 337t344.5 128t346 -128t132 -337v-510q0 -123 -51 -218.5t-142 -150.5q-3 -2 -4 -4.5t0.5 -4t5.5 -1.5h186q11 0 18 -7t7 -17v-47
q0 -11 -7.5 -18t-17.5 -7h-356q-10 0 -17 7t-7 18v51q0 20 22 26q101 23 177.5 122.5t76.5 236.5v526q0 166 -101.5 266.5t-267.5 100.5q-165 0 -265.5 -101t-100.5 -266v-526q0 -137 75 -236.5t173 -122.5q22 -6 22 -26v-51q0 -11 -7 -18t-17 -7h-351z" />
    <glyph glyph-name="uni03BC" unicode="&#x3bc;" horiz-adv-x="1114" 
d="M827 1008q0 10 7 17t18 7h57q11 0 18 -7t7 -17v-983q0 -11 -7 -18t-18 -7h-57q-10 0 -17.5 7t-7.5 18v96q0 6 -3.5 7t-6.5 -5q-89 -137 -287 -137q-138 0 -233 73q-10 7 -10 -4v-440q0 -11 -7.5 -18t-17.5 -7h-59q-11 0 -18 7t-7 18v1393q0 10 7 17t18 7h59q11 0 18 -7
t7 -17v-695q11 -106 81.5 -168.5t182.5 -62.5q126 0 201 74t75 196v656z" />
    <glyph glyph-name="pi" unicode="&#x3c0;" horiz-adv-x="1312" 
d="M1229 963q0 -11 -7.5 -18t-17.5 -7h-149q-8 0 -8 -8v-639q0 -111 29.5 -150.5t103.5 -42.5q24 0 24 -24v-47q0 -25 -24 -25q-44 1 -76.5 7t-65.5 21.5t-53.5 42.5t-33.5 72t-13 107v678q0 8 -8 8h-529q-8 0 -8 -8v-905q0 -11 -7 -18t-17 -7h-60q-10 0 -17 7t-7 18v905
q0 8 -9 8h-165q-11 0 -18 7t-7 18v45q0 10 7 17t18 7h1093q11 0 18 -7t7 -17v-45z" />
    <glyph glyph-name="Wgrave" unicode="&#x1e80;" horiz-adv-x="1792" 
d="M922 1614q6 -12 1 -20.5t-18 -8.5h-47q-20 0 -29 17l-131 219q-7 13 -2 20.5t19 7.5h55q21 0 31 -16zM483 0q-21 0 -28 20l-398 1387q-6 27 21 27h63q22 0 29 -21l338 -1190q2 -5 5 -5t5 5l311 1190q6 21 29 21h66q22 0 28 -21l324 -1190q2 -5 5 -5t5 5l340 1190
q7 21 29 21h59q27 0 21 -27l-398 -1387q-7 -20 -28 -20h-64q-22 0 -28 20l-320 1213q-1 3 -2.5 4t-3 0t-2.5 -4l-318 -1213q-6 -20 -28 -20h-60z" />
    <glyph glyph-name="wgrave" unicode="&#x1e81;" horiz-adv-x="1443" 
d="M743 1212q6 -12 1.5 -20t-17.5 -8h-47q-21 0 -29 16l-131 219q-7 13 -2 21t19 8h55q21 0 31 -16zM387 0q-22 0 -29 20l-284 984q-3 12 2.5 20t17.5 8h60q22 0 28 -20l234 -852q2 -4 5 -4t5 4l236 852q7 20 28 20h58q21 0 28 -20l238 -850q2 -4 6 -4t6 4l236 850
q6 20 28 20l60 -2q26 0 20 -26l-289 -984q-7 -20 -26 -20h-64q-21 0 -28 20l-238 816q-1 4 -6 4t-6 -4l-234 -816q-7 -20 -28 -20h-64z" />
    <glyph glyph-name="Wacute" unicode="&#x1e82;" horiz-adv-x="1792" 
d="M842 1585q-13 0 -18 8.5t1 20.5l121 219q10 16 31 16h55q14 0 19 -7.5t-2 -20.5l-131 -219q-8 -17 -29 -17h-47zM483 0q-21 0 -28 20l-398 1387q-6 27 21 27h63q22 0 29 -21l338 -1190q2 -5 5 -5t5 5l311 1190q6 21 29 21h66q22 0 28 -21l324 -1190q2 -5 5 -5t5 5
l340 1190q7 21 29 21h59q27 0 21 -27l-398 -1387q-7 -20 -28 -20h-64q-22 0 -28 20l-320 1213q-1 3 -2.5 4t-3 0t-2.5 -4l-318 -1213q-6 -20 -28 -20h-60z" />
    <glyph glyph-name="wacute" unicode="&#x1e83;" horiz-adv-x="1443" 
d="M664 1184q-13 0 -18 8t1 20l121 220q10 16 31 16h55q14 0 18.5 -8t-2.5 -21l-131 -219q-8 -16 -28 -16h-47zM387 0q-22 0 -29 20l-284 984q-3 12 2.5 20t17.5 8h60q22 0 28 -20l234 -852q2 -4 5 -4t5 4l236 852q7 20 28 20h58q21 0 28 -20l238 -850q2 -4 6 -4t6 4
l236 850q6 20 28 20l60 -2q26 0 20 -26l-289 -984q-7 -20 -26 -20h-64q-21 0 -28 20l-238 816q-1 4 -6 4t-6 -4l-234 -816q-7 -20 -28 -20h-64z" />
    <glyph glyph-name="Wdieresis" unicode="&#x1e84;" horiz-adv-x="1792" 
d="M727 1645q-37 0 -61.5 23.5t-24.5 60.5q0 34 24.5 57.5t61.5 23.5q36 0 60 -23.5t24 -57.5q0 -37 -23.5 -60.5t-60.5 -23.5zM1061 1645q-38 0 -63 23.5t-25 60.5q0 34 25 57.5t63 23.5q35 0 58.5 -23.5t23.5 -57.5q0 -37 -23.5 -60.5t-58.5 -23.5zM483 0q-21 0 -28 20
l-398 1387q-6 27 21 27h63q22 0 29 -21l338 -1190q2 -5 5 -5t5 5l311 1190q6 21 29 21h66q22 0 28 -21l324 -1190q2 -5 5 -5t5 5l340 1190q7 21 29 21h59q27 0 21 -27l-398 -1387q-7 -20 -28 -20h-64q-22 0 -28 20l-320 1213q-1 3 -2.5 4t-3 0t-2.5 -4l-318 -1213
q-6 -20 -28 -20h-60z" />
    <glyph glyph-name="wdieresis" unicode="&#x1e85;" horiz-adv-x="1443" 
d="M549 1243q-37 0 -61.5 23.5t-24.5 60.5q0 34 25 58t61 24t60 -24t24 -58q0 -37 -23.5 -60.5t-60.5 -23.5zM883 1243q-38 0 -63 23.5t-25 60.5q0 34 25 58t63 24q35 0 58.5 -24t23.5 -58q0 -37 -23.5 -60.5t-58.5 -23.5zM387 0q-22 0 -29 20l-284 984q-3 12 2.5 20t17.5 8
h60q22 0 28 -20l234 -852q2 -4 5 -4t5 4l236 852q7 20 28 20h58q21 0 28 -20l238 -850q2 -4 6 -4t6 4l236 850q6 20 28 20l60 -2q26 0 20 -26l-289 -984q-7 -20 -26 -20h-64q-21 0 -28 20l-238 816q-1 4 -6 4t-6 -4l-234 -816q-7 -20 -28 -20h-64z" />
    <glyph glyph-name="Ygrave" unicode="&#x1ef2;" horiz-adv-x="1134" 
d="M596 1612q6 -12 1.5 -20.5t-17.5 -8.5h-48q-20 0 -28 16l-131 220q-7 13 -2.5 20.5t18.5 7.5h55q21 0 31 -16zM539 0q-11 0 -18 7t-7 18v626q0 9 -2 11l-426 743q-7 13 -1.5 21t19.5 8h60q21 0 31 -17l366 -641q1 -3 6 -3t6 3l367 641q10 17 31 17h59q14 0 20 -8t-1 -21
l-426 -743q-2 -2 -2 -11v-626q0 -11 -7.5 -18t-17.5 -7h-57z" />
    <glyph glyph-name="ygrave" unicode="&#x1ef3;" horiz-adv-x="919" 
d="M489 1217q6 -12 1.5 -20.5t-17.5 -8.5h-47q-21 0 -29 16l-131 219q-7 13 -2 21t19 8h55q21 0 31 -16zM121 -410q-6 0 -10.5 7.5t-4.5 17.5v45q0 10 4.5 17.5t10.5 7.5h14q60 1 96 12.5t67.5 49t54 91t55.5 156.5q4 8 0 12l-349 998q-4 13 2 20.5t19 7.5h61q20 0 27 -20
l291 -854q1 -4 6 -4t6 4l281 854q7 20 26 20h64q13 0 18.5 -7.5t1.5 -20.5l-385 -1108q-35 -100 -64 -157t-69 -92t-86.5 -46t-122.5 -11h-14z" />
    <glyph glyph-name="endash" unicode="&#x2013;" horiz-adv-x="909" 
d="M111 528q-11 0 -18 7t-7 18v49q0 10 7 17.5t18 7.5h688q10 0 17 -7t7 -18v-49q0 -11 -7 -18t-17 -7h-688z" />
    <glyph glyph-name="emdash" unicode="&#x2014;" horiz-adv-x="1417" 
d="M111 530q-11 0 -18 7t-7 18v47q0 10 7 17.5t18 7.5h1198q10 0 17 -7t7 -18v-47q0 -11 -7 -18t-17 -7h-1198z" />
    <glyph glyph-name="quoteleft" unicode="&#x2018;" horiz-adv-x="253" 
d="M31 1026q-13 0 -18.5 8.5t-0.5 20.5l144 360q6 19 28 19h41q12 0 17.5 -8t1.5 -21l-123 -358q-7 -21 -27 -21h-63z" />
    <glyph glyph-name="quoteright" unicode="&#x2019;" horiz-adv-x="253" 
d="M223 1434q13 0 18.5 -8.5t0.5 -20.5l-144 -361q-6 -18 -28 -18h-41q-12 0 -17.5 8t-1.5 21l123 358q7 21 27 21h63z" />
    <glyph glyph-name="quotesinglbase" unicode="&#x201a;" horiz-adv-x="1228" 
d="M176 -152q-28 0 -22 27l94 418q3 22 26 22h50q28 0 22 -26l-108 -420q-6 -21 -29 -21h-33z" />
    <glyph glyph-name="quotedblleft" unicode="&#x201c;" horiz-adv-x="495" 
d="M31 1026q-14 0 -19.5 8t-1.5 21l140 360q6 19 28 19h39q13 0 19 -8t2 -21l-119 -358q-7 -21 -27 -21h-61zM281 1026q-14 0 -19.5 8t-1.5 21l139 360q6 19 29 19h39q12 0 18 -8t2 -21l-118 -358q-7 -21 -27 -21h-61z" />
    <glyph glyph-name="quotedblright" unicode="&#x201d;" horiz-adv-x="495" 
d="M215 1434q14 0 19.5 -8t1.5 -21l-140 -361q-6 -18 -28 -18h-39q-13 0 -19 8t-2 21l119 358q7 21 27 21h61zM465 1434q14 0 19 -8t1 -21l-139 -361q-6 -18 -29 -18h-38q-13 0 -19 8t-2 21l119 358q7 21 26 21h62z" />
    <glyph glyph-name="quotedblbase" unicode="&#x201e;" horiz-adv-x="505" 
d="M215 260q14 0 19.5 -8t1.5 -21l-140 -360q-6 -18 -28 -18h-39q-13 0 -19 7.5t-2 20.5l119 359q7 20 27 20h61zM465 260q14 0 19 -8t1 -21l-139 -360q-6 -18 -29 -18h-38q-13 0 -19 7.5t-2 20.5l119 359q7 20 26 20h62z" />
    <glyph glyph-name="dagger" unicode="&#x2020;" horiz-adv-x="864" 
d="M754 938q10 0 17 -7t7 -18v-41q0 -10 -7 -17t-17 -7h-260q-9 0 -9 -8v-1225q0 -11 -7 -18t-17 -7h-60q-10 0 -17 7t-7 18v1225q0 8 -8 8h-258q-11 0 -18 7t-7 17v41q0 11 7 18t18 7h258q8 0 8 8v463q0 11 7 18t17 7h60q10 0 17 -7t7 -18v-463q0 -8 9 -8h260z" />
    <glyph glyph-name="daggerdbl" unicode="&#x2021;" horiz-adv-x="864" 
d="M778 872q0 -10 -7 -17t-17 -7h-260q-9 0 -9 -8v-656q0 -8 9 -8h260q10 0 17 -7t7 -17v-41q0 -11 -7 -18t-17 -7h-260q-9 0 -9 -8v-463q0 -11 -7 -18t-17 -7h-60q-10 0 -17 7t-7 18v463q0 8 -8 8h-258q-11 0 -18 7t-7 18v41q0 10 7 17t18 7h258q8 0 8 8v656q0 8 -8 8h-258
q-11 0 -18 7t-7 17v41q0 11 7 18t18 7h258q8 0 8 8v463q0 11 7 18t17 7h60q10 0 17 -7t7 -18v-463q0 -8 9 -8h260q10 0 17 -7t7 -18v-41z" />
    <glyph glyph-name="bullet" unicode="&#x2022;" horiz-adv-x="628" 
d="M315 313q-95 0 -162 68t-67 162q0 95 67 161t162 66q93 0 160.5 -66.5t67.5 -160.5t-68 -162t-160 -68z" />
    <glyph glyph-name="ellipsis" unicode="&#x2026;" horiz-adv-x="1589" 
d="M276 8q-47 0 -78.5 32t-31.5 77q0 44 33.5 75t76.5 31q45 0 79 -31t34 -75t-33.5 -76.5t-79.5 -32.5zM795 8q-47 0 -79 32t-32 77q0 43 33.5 74.5t77.5 31.5q45 0 78.5 -31t33.5 -75t-33 -76.5t-79 -32.5zM1303 8q-47 0 -79 32t-32 77q0 43 33.5 74.5t77.5 31.5
q45 0 78.5 -31t33.5 -75t-33 -76.5t-79 -32.5z" />
    <glyph glyph-name="perthousand" unicode="&#x2030;" horiz-adv-x="2314" 
d="M328 567q-117 0 -186.5 67t-69.5 181v389q0 112 69.5 179t186.5 67t188.5 -67t71.5 -179v-389q0 -113 -71 -180.5t-189 -67.5zM389 0q-14 0 -18.5 8t2.5 21l882 1388q10 17 29 17h37q14 0 18.5 -8t-2.5 -21l-882 -1389q-10 -16 -29 -16h-37zM328 641q80 0 129 46t49 122
v401q0 75 -49.5 121.5t-128.5 46.5q-78 0 -126 -46.5t-48 -121.5v-401q0 -76 48 -122t126 -46zM1352 -16q-117 0 -186.5 66.5t-69.5 180.5v390q0 112 69.5 178.5t186.5 66.5q118 0 189 -66.5t71 -178.5v-390q0 -113 -71 -180t-189 -67zM1997 -16q-117 0 -186.5 66.5
t-69.5 180.5v390q0 112 69.5 178.5t186.5 66.5q118 0 189 -66.5t71 -178.5v-390q0 -113 -71 -180t-189 -67zM1352 57q80 0 129 46t49 122v402q0 75 -49.5 121.5t-128.5 46.5q-78 0 -126 -46.5t-48 -121.5v-402q0 -76 48 -122t126 -46zM1997 57q80 0 129 46t49 122v402
q0 75 -49.5 121.5t-128.5 46.5q-78 0 -126 -46.5t-48 -121.5v-402q0 -76 48 -122t126 -46z" />
    <glyph glyph-name="guilsinglleft" unicode="&#x2039;" horiz-adv-x="757" 
d="M524 250q9 -12 5 -21.5t-19 -9.5h-55q-20 0 -31 14l-266 326q-13 17 0 33l266 326q11 14 31 14h55q15 0 19 -9.5t-5 -21.5l-266 -319q-3 -6 0 -13z" />
    <glyph glyph-name="guilsinglright" unicode="&#x203a;" horiz-adv-x="819" 
d="M248 219q-15 0 -19.5 9.5t4.5 21.5l267 319q3 7 0 13l-267 319q-9 12 -4.5 21.5t19.5 9.5h55q20 0 31 -14l266 -326q13 -17 0 -33l-266 -326q-11 -14 -31 -14h-55z" />
    <glyph glyph-name="fraction" unicode="&#x2044;" horiz-adv-x="489" 
d="M-213 0q-14 0 -18.5 8t2.5 21l882 1388q10 17 29 17h37q14 0 18.5 -8t-2.5 -21l-882 -1389q-10 -16 -29 -16h-37z" />
    <glyph glyph-name="uni2074" unicode="&#x2074;" horiz-adv-x="673" 
d="M573 1231q11 0 18 -7.5t7 -17.5v-26q0 -10 -7 -17.5t-18 -7.5h-34q-9 0 -9 -8v-203q0 -10 -7 -17t-17 -7h-35q-11 0 -18 7t-7 17v203q0 8 -8 8h-352q-10 0 -17.5 7.5t-7.5 17.5v24q0 14 7 31l245 526q8 19 29 19h33q14 0 19 -8t-1 -21l-235 -510q-2 -3 0 -6.5t6 -3.5h274
q8 0 8 8v186q0 11 7 18t18 7h35q10 0 17 -7t7 -18v-186q0 -8 9 -8h34z" />
    <glyph glyph-name="uni2075" unicode="&#x2075;" horiz-adv-x="612" 
d="M532 1319q27 -69 27 -141q0 -78 -27 -140q-58 -135 -219 -135q-86 0 -145.5 44.5t-83.5 119.5q-10 38 -10 63q-3 25 22 25h37q22 0 25 -18v-9l6 -32q11 -54 51 -86.5t98 -32.5q103 0 140 88q22 49 22 111q0 66 -22 118q-40 82 -136 82q-109 0 -149 -73q-1 -1 -2 -4.5
t-2 -4.5q-5 -16 -25 -16h-41q-10 0 -17 7t-7 18v446q0 11 7 18t17 7h400q10 0 17 -7t7 -18v-23q0 -10 -7 -17t-17 -7h-334q-8 0 -8 -8v-291q0 -5 3 -7t7 1q62 53 162 53q146 0 204 -131z" />
    <glyph glyph-name="uni2076" unicode="&#x2076;" horiz-adv-x="630" 
d="M557 1288q10 -39 10 -110q0 -74 -10 -111q-22 -74 -84.5 -119t-148.5 -45q-85 0 -144.5 44.5t-83.5 119.5q-14 41 -14 113v376q0 106 66 167t176 61q99 0 163 -58.5t64 -152.5v-4q0 -11 -7.5 -18t-17.5 -7h-34q-25 0 -25 12v11q0 62 -41 102.5t-102 40.5
q-72 0 -116 -43.5t-44 -118.5v-168q0 -5 3 -6.5t7 2.5q62 72 162 72q79 0 139 -44t82 -116zM477 1092q8 33 8 84q0 50 -8 81q-9 53 -50.5 86t-102.5 33q-57 0 -97.5 -32t-52.5 -84q-8 -25 -8 -84q0 -46 6 -84q11 -51 52.5 -83t99.5 -32q60 0 99.5 31t53.5 84z" />
    <glyph glyph-name="uni2077" unicode="&#x2077;" horiz-adv-x="559" 
d="M186 920q-29 0 -20 28l274 750q2 3 0 6.5t-6 3.5h-330q-8 0 -8 -8v-60q0 -10 -7 -17t-17 -7h-21q-11 0 -17.5 7t-6.5 17v115q0 11 7 18t17 7h457q10 0 17 -7t7 -18v-31q0 -12 -6 -30l-274 -754q-6 -20 -29 -20h-37z" />
    <glyph glyph-name="uni2078" unicode="&#x2078;" horiz-adv-x="636" 
d="M451 1376q-9 -6 0 -12q75 -40 96 -113q12 -41 12 -98q0 -53 -10 -92q-22 -71 -85 -114.5t-149 -43.5q-84 0 -144 42.5t-85 115.5q-14 43 -14 94q0 42 16 94q20 73 92 115q9 6 0 12q-67 39 -92 109q-14 39 -14 78q0 43 14 79q58 144 227 144q86 0 146.5 -38.5t85.5 -107.5
q14 -38 14 -77q0 -35 -14 -76q-26 -72 -96 -111zM154 1559q0 -14 8 -46q13 -49 52 -78.5t101 -29.5q60 0 100.5 25.5t51.5 68.5q4 11 8 29q2 10 2 31q0 31 -6 47q-12 51 -54 79.5t-102 28.5q-61 0 -99.5 -29.5t-51.5 -78.5q-10 -27 -10 -47zM475 1161q0 43 -4 58
q-9 54 -52 87t-104 33q-60 0 -99.5 -32.5t-51.5 -87.5q-8 -31 -8 -60q0 -25 6 -63q11 -55 51.5 -87t101.5 -32t103 33t53 86q4 23 4 65z" />
    <glyph glyph-name="uni2079" unicode="&#x2079;" horiz-adv-x="630" 
d="M535 1620q14 -41 14 -113v-377q0 -106 -66 -166.5t-176 -60.5q-99 0 -163 58.5t-64 152.5v4q0 11 7 18t17 7h35q25 0 25 -10v-13q0 -62 41 -102.5t102 -40.5q72 0 116 43.5t44 118.5v168q0 5 -2.5 6.5t-7.5 -2.5q-62 -72 -162 -72q-79 0 -139 44t-82 116q-11 43 -11 110
q0 70 11 111q22 74 84.5 119t148.5 45q85 0 144.5 -44.5t83.5 -119.5zM457 1427q8 25 8 84q0 47 -6 84q-11 51 -52.5 83t-99.5 32q-60 0 -99.5 -31t-53.5 -84q-9 -37 -9 -84t9 -81q9 -53 50.5 -86t102.5 -33q57 0 97.5 32t52.5 84z" />
    <glyph glyph-name="franc" unicode="&#x20a3;" horiz-adv-x="1341" 
d="M1292 1362q0 -11 -7 -18t-17 -7h-770q-9 0 -9 -8v-553q0 -8 9 -8h544q10 0 17.5 -7t7.5 -18v-47q0 -10 -7 -17t-18 -7h-544q-9 0 -9 -8v-281q0 -8 9 -8h317q11 0 18 -7.5t7 -17.5v-28q0 -10 -7 -17.5t-18 -7.5h-317q-9 0 -9 -8v-264q0 -11 -7 -18t-17 -7h-59
q-10 0 -17.5 7t-7.5 18v264q0 8 -8 8h-140q-10 0 -17 7t-7 18v28q0 11 7 18t17 7h140q8 0 8 8v1026q0 11 7.5 18t17.5 7h862q10 0 17 -7t7 -18v-47z" />
    <glyph glyph-name="Euro" unicode="&#x20ac;" horiz-adv-x="1302" 
d="M748 78q122 0 203 67.5t98 182.5q3 23 26 20l58 -10q25 -4 22 -29q-23 -150 -132 -238.5t-275 -88.5q-187 0 -300.5 110.5t-113.5 292.5v168q0 8 -8 8h-140q-10 0 -17 7t-7 18v20q0 11 7 18t17 7h140q8 0 8 8v149q0 9 -8 9h-140q-10 0 -17 6.5t-7 17.5v21q0 10 7 17t17 7
h140q8 0 8 8v177q0 181 113 290t301 109q169 0 278.5 -90.5t128.5 -243.5q3 -25 -22 -29l-60 -8q-23 -3 -26 23q-14 115 -94.5 183.5t-204.5 68.5q-137 0 -221.5 -82t-84.5 -217v-181q0 -8 9 -8h510q29 0 20 -28l-8 -23q-6 -18 -29 -18h-493q-3 0 -6 -3t-3 -6v-149
q0 -8 9 -8h440q14 0 19 -8t1 -21l-8 -22q-6 -19 -29 -19h-423q-9 0 -9 -8v-174q0 -135 84.5 -218t221.5 -83z" />
    <glyph glyph-name="uni20BA" unicode="&#x20ba;" horiz-adv-x="1300" 
d="M1047 518q0 25 24 25h59q25 0 25 -25q-9 -192 -147.5 -334t-370.5 -172q-89 -12 -188 -12q-25 0 -25 25v630q0 3 -2.5 6.5t-5.5 2.5l-209 -60q-25 -7 -31 19l-6 22q-7 24 16 31l232 65q6 3 6 11v127q0 3 -2.5 6t-5.5 2l-209 -60q-25 -7 -31 19l-6 22q-7 24 16 31l232 66
q6 3 6 10v434q0 11 7 18t18 7h59q10 0 17 -7t7 -18v-401q0 -3 3 -6.5t6 -2.5l274 78q25 7 31 -18l6 -23q7 -24 -16 -30l-297 -84q-7 -4 -7 -11v-127q0 -3 3 -6t6 -2l274 78q25 7 31 -18l6 -23q7 -24 -16 -31l-297 -84q-7 -4 -7 -10v-586q0 -8 11 -8q219 12 356 132t148 292z
" />
    <glyph glyph-name="uni20BD" unicode="&#x20bd;" horiz-adv-x="1431" 
d="M961 664h-429q-8 0 -8 -9v-186q0 -8 8 -8h515q10 0 17 -7t7 -18v-26q0 -11 -7 -18t-17 -7h-515q-8 0 -8 -8v-352q0 -11 -7 -18t-17 -7h-60q-10 0 -17 7t-7 18v352q0 8 -8 8h-175q-10 0 -17 7t-7 18v26q0 11 7 18t17 7h175q8 0 8 8v186q0 9 -8 9h-175q-11 0 -17.5 7
t-6.5 17v43q0 11 7 18t17 7h175q8 0 8 8v649q0 11 7 18t17 7h523q174 0 281.5 -107.5t107.5 -281.5q0 -173 -109 -279t-282 -106zM532 1339q-8 0 -8 -8v-567q0 -8 8 -8h422q131 0 210 79.5t79 211.5q0 133 -79 212.5t-210 79.5h-422z" />
    <glyph glyph-name="uni2113" unicode="&#x2113;" horiz-adv-x="1028" 
d="M612 70q97 0 172 59q21 15 33 -6l17 -33q9 -22 -5 -33q-36 -33 -99.5 -53t-133.5 -20q-126 0 -195 81t-69 226l-2 241q0 6 -4 7t-7 -2l-79 -64q-9 -9 -19 -7.5t-16 13.5l-17 27q-9 19 7 35q25 19 74 57.5t57 44.5q4 4 4 10l-2 377q-1 102 32.5 195t98.5 155.5t147 69.5
q102 9 171 -66.5t69 -191.5q0 -66 -24 -131.5t-60 -118.5t-95.5 -113t-111.5 -104t-127 -102q-4 -4 -4 -11l2 -309q0 -233 186 -233zM422 1018l2 -285q0 -11 10 -4q73 58 125.5 107t100.5 107.5t73 119t25 121.5q0 83 -42.5 137t-107.5 45q-78 -9 -132 -107t-54 -241z" />
    <glyph glyph-name="trademark" unicode="&#x2122;" horiz-adv-x="1339" 
d="M74 1368q-10 0 -17.5 7t-7.5 18v16q0 11 7.5 18t17.5 7h450q10 0 17.5 -7t7.5 -18v-16q0 -11 -7.5 -18t-17.5 -7h-184q-8 0 -8 -8v-621q0 -10 -7 -17t-18 -7h-26q-11 0 -18 7t-7 17v621q0 8 -8 8h-174zM1151 1417q10 17 29 17h30q10 0 17.5 -7t7.5 -18v-670q0 -10 -7 -17
t-18 -7h-24q-11 0 -18 7t-7 17v551q0 6 -3.5 8t-6.5 -4l-150 -227q-10 -16 -28 -16h-2q-19 0 -29 16l-149 227q-3 6 -7 4t-4 -8v-551q0 -11 -7 -17.5t-17 -6.5h-25q-11 0 -17.5 6.5t-6.5 17.5v670q0 11 7 18t17 7h31q19 0 29 -17l172 -268q1 -3 6 -3t6 3z" />
    <glyph glyph-name="uni2126" unicode="&#x2126;" horiz-adv-x="1316" 
d="M186 0q-10 0 -17 7t-7 18v47q0 10 7 17t17 7h187q4 0 5.5 1.5t0.5 4t-4 4.5q-91 55 -142 150.5t-51 218.5v510q0 209 130.5 337t344.5 128t346 -128t132 -337v-510q0 -123 -51 -218.5t-142 -150.5q-3 -2 -4 -4.5t0.5 -4t5.5 -1.5h186q11 0 18 -7t7 -17v-47
q0 -11 -7.5 -18t-17.5 -7h-356q-10 0 -17 7t-7 18v51q0 20 22 26q101 23 177.5 122.5t76.5 236.5v526q0 166 -101.5 266.5t-267.5 100.5q-165 0 -265.5 -101t-100.5 -266v-526q0 -137 75 -236.5t173 -122.5q22 -6 22 -26v-51q0 -11 -7 -18t-17 -7h-351z" />
    <glyph glyph-name="estimated" unicode="&#x212e;" horiz-adv-x="1814" 
d="M907 1450q214 0 385 -96t267 -264.5t96 -378.5q0 -9 -25 -9h-1290q-8 0 -8 -8v-366q0 -7 4 -11q92 -133 240 -207.5t331 -74.5q197 0 358 92.5t248 251.5q13 16 31 16h8q14 0 19.5 -8t-0.5 -20q-94 -176 -270 -279.5t-394 -103.5q-213 0 -383.5 95t-266 261t-95.5 371
q0 210 95.5 378.5t266 264.5t383.5 96zM338 1116q-4 -2 -4 -10v-344q0 -8 8 -8h1131q8 0 8 8v342q0 6 -4 10q-92 134 -240 209.5t-330 75.5q-181 0 -329 -75t-240 -208z" />
    <glyph glyph-name="oneeighth" unicode="&#x215b;" horiz-adv-x="1603" 
d="M272 598q0 -11 -7 -18t-17 -7h-35q-11 0 -18 7.5t-7 17.5v743q0 3 -2.5 6.5t-5.5 2.5l-71 -19q-12 -3 -19.5 3t-7.5 18v14q0 20 18 29l74 32q17 7 31 7h43q10 0 17 -7t7 -18v-811zM1104 1417q10 17 29 17h36q14 0 19 -8t-2 -21l-883 -1389q-10 -16 -29 -16h-36
q-14 0 -19 8t2 21zM1417 457q-10 -7 0 -13q75 -40 96 -112q13 -44 13 -99q0 -53 -10 -92q-22 -70 -85 -113.5t-149 -43.5q-84 0 -144 42.5t-85 114.5q-15 46 -15 95q0 39 17 94q20 72 92 114q10 6 0 13q-68 39 -92 108q-15 41 -15 78q0 41 15 80q58 143 227 143
q87 0 146.5 -38t84.5 -107q15 -41 15 -78q0 -33 -15 -76q-25 -71 -96 -110zM1120 639q0 -13 8 -45q13 -49 52.5 -79t101.5 -30q60 0 100.5 26t51.5 69q5 12 8 28q2 10 2 31q0 31 -6 47q-12 51 -54 80t-102 29q-61 0 -100 -30t-52 -79q-10 -27 -10 -47zM1442 242q0 42 -4 57
q-9 54 -52 87.5t-104 33.5q-60 0 -100 -33t-52 -88q-8 -31 -8 -59q0 -27 6 -64q11 -54 52 -86.5t102 -32.5t103 33t53 86q4 23 4 66z" />
    <glyph glyph-name="threeeighths" unicode="&#x215c;" horiz-adv-x="1812" 
d="M543 702q-59 -122 -215 -122q-85 0 -144.5 44.5t-85.5 120.5q-10 35 -14 80q0 25 25 25h34q25 0 25 -25q5 -41 8 -55q9 -53 50.5 -85t101.5 -32q94 0 135 78q26 54 26 121q0 81 -28 135q-41 78 -133 78q-11 0 -31 -4q-23 -7 -35 8l-14 16q-14 17 0 35l209 246
q3 3 1.5 6.5t-5.5 3.5h-336q-11 0 -18 7t-7 18v24q0 11 7 18t18 7h426q10 0 17 -7t7 -18v-32q0 -19 -10 -29l-190 -231q-3 -3 -1.5 -7t5.5 -4q116 -9 170 -108q30 -68 30 -162q0 -86 -28 -150zM1313 1417q10 17 28 17h37q14 0 19 -8t-2 -21l-883 -1389q-10 -16 -29 -16h-37
q-14 0 -18.5 8t2.5 21zM1626 457q-10 -7 0 -13q75 -40 96 -112q13 -44 13 -99q0 -49 -11 -92q-22 -70 -84.5 -113.5t-148.5 -43.5q-84 0 -144 42.5t-85 114.5q-15 46 -15 95q0 39 17 94q20 72 92 114q10 6 0 13q-68 39 -92 108q-15 41 -15 78q0 41 15 80q58 143 227 143
q87 0 146.5 -38t84.5 -107q15 -41 15 -78q0 -33 -15 -76q-25 -71 -96 -110zM1329 639q0 -13 8 -45q13 -49 52.5 -79t101.5 -30q59 0 99.5 26t51.5 69q7 17 9 28q2 10 2 31q0 31 -6 47q-12 51 -54 80t-102 29q-61 0 -100 -30t-52 -79q-10 -27 -10 -47zM1651 242q0 42 -4 57
q-9 54 -52 87.5t-104 33.5q-60 0 -100 -33t-52 -88q-8 -31 -8 -59q0 -27 6 -64q11 -54 52 -86.5t102 -32.5t103 33t53 86q4 23 4 66z" />
    <glyph glyph-name="fiveeighths" unicode="&#x215d;" horiz-adv-x="1748" 
d="M1249 1417q10 17 29 17h37q14 0 18.5 -8t-2.5 -21l-882 -1389q-10 -16 -29 -16h-37q-14 0 -18.5 8t2.5 21zM532 696q-58 -135 -219 -135q-86 0 -145.5 44.5t-83.5 119.5q-10 38 -10 63q-3 25 22 25h37q22 0 25 -18v-9l6 -32q11 -54 51 -86.5t98 -32.5q103 0 140 88
q22 49 22 111q0 66 -22 118q-40 82 -136 82q-109 0 -149 -73q-1 -1 -2 -4.5t-2 -4.5q-5 -16 -25 -16h-41q-10 0 -17 7t-7 18v446q0 11 7 18t17 7h400q10 0 17 -7t7 -18v-23q0 -10 -7 -17t-17 -7h-334q-8 0 -8 -8v-291q0 -5 3 -7t7 1q62 53 162 53q146 0 204 -131
q27 -69 27 -141q0 -78 -27 -140zM1563 457q-10 -7 0 -13q75 -40 96 -112q12 -41 12 -99q0 -53 -10 -92q-22 -70 -85 -113.5t-149 -43.5q-84 0 -144 42.5t-85 114.5q-14 43 -14 95q0 42 16 94q20 72 92 114q10 6 0 13q-68 39 -92 108q-14 39 -14 78q0 44 14 80
q58 143 227 143q87 0 147 -38.5t85 -106.5q14 -38 14 -78q0 -35 -14 -76q-25 -71 -96 -110zM1266 639q0 -13 8 -45q13 -49 52 -79t101 -30q59 0 100 26t52 69q5 12 8 28q2 10 2 31q0 31 -6 47q-12 51 -54 80t-102 29q-61 0 -99.5 -30t-51.5 -79q-10 -27 -10 -47zM1587 242
q0 42 -4 57q-9 54 -52 87.5t-104 33.5q-60 0 -99.5 -33t-51.5 -88q-8 -31 -8 -59q0 -27 6 -64q11 -55 51.5 -87t101.5 -32t103 33t53 86q4 23 4 66z" />
    <glyph glyph-name="seveneighths" unicode="&#x215e;" horiz-adv-x="1613" 
d="M252 594q-6 -21 -29 -21h-37q-14 0 -19 8t-1 21l274 750q2 3 0 6.5t-6 3.5h-330q-8 0 -8 -8v-60q0 -10 -7 -17t-17 -7h-21q-11 0 -17.5 7t-6.5 17v115q0 11 7 18t17 7h457q10 0 17 -7t7 -18v-31q0 -12 -6 -30zM1114 1417q10 17 29 17h37q14 0 18.5 -8t-2.5 -21
l-883 -1389q-10 -16 -28 -16h-37q-14 0 -19 8t2 21zM1427 457q-10 -7 0 -13q77 -41 97 -112q12 -41 12 -99q0 -53 -10 -92q-22 -70 -85 -113.5t-149 -43.5q-84 0 -144 42.5t-85 114.5q-14 43 -14 95q0 42 16 94q20 72 92 114q10 6 0 13q-68 39 -92 108q-14 39 -14 78
q0 44 14 80q58 143 227 143q87 0 147 -38.5t85 -106.5q14 -38 14 -78q0 -35 -14 -76q-25 -70 -97 -110zM1130 639q0 -9 9 -45q13 -49 52 -79t101 -30q60 0 100.5 26t51.5 69q5 12 8 28q2 10 2 31q0 31 -6 47q-12 51 -54 80t-102 29q-61 0 -99.5 -30t-51.5 -79
q-11 -29 -11 -47zM1452 242q0 42 -4 57q-9 54 -52 87.5t-104 33.5q-60 0 -99.5 -33t-51.5 -88q-8 -31 -8 -59q0 -27 6 -64q11 -55 51.5 -87t101.5 -32t103 33t53 86q4 23 4 66z" />
    <glyph glyph-name="partialdiff" unicode="&#x2202;" horiz-adv-x="1196" 
d="M864 1280q156 -209 152 -608q-4 -688 -467 -688q-187 0 -299.5 119t-112.5 321q0 204 125 329.5t307 125.5q194 -3 328 -144q10 -7 10 4q-15 320 -125 473q-82 117 -221 134q-129 11 -239 -60q-23 -16 -33 10l-17 47q-6 22 11 33q126 85 282 70q187 -15 299 -166zM555 80
q171 0 255.5 123.5t96.5 361.5q0 8 -2 10q-44 90 -130 149t-195 58q-141 0 -237.5 -99t-96.5 -257q0 -155 85.5 -250.5t223.5 -95.5z" />
    <glyph glyph-name="uni2206" unicode="&#x2206;" horiz-adv-x="1294" 
d="M94 0q-10 0 -17 7t-7 18v55q0 13 6 31l518 1304q6 19 29 19h49q22 0 28 -19l519 -1306q6 -18 6 -31v-53q0 -11 -7.5 -18t-17.5 -7h-1106zM180 104q-2 -3 0 -6.5t6 -3.5h922q4 0 6 3.5t0 6.5l-461 1178q-1 6 -6 6t-6 -6z" />
    <glyph glyph-name="product" unicode="&#x220f;" horiz-adv-x="1349" 
d="M1118 1638q11 0 18 -7t7 -17v-1999q0 -11 -7.5 -18t-17.5 -7h-59q-11 0 -18 7t-7 18v1919q0 8 -8 8h-700q-9 0 -9 -8v-1919q0 -11 -7 -18t-17 -7h-60q-10 0 -17 7t-7 18v1999q0 10 6.5 17t17.5 7h885z" />
    <glyph glyph-name="summation" unicode="&#x2211;" horiz-adv-x="1263" 
d="M233 -408q-10 0 -17 7t-7 18v53q0 18 8 31l498 901q3 6 0 12l-496 748q-8 13 -8 31v53q0 10 7 17t18 7h872q11 0 18 -7t7 -17v-45q0 -11 -7.5 -18t-17.5 -7h-770q-5 0 -7 -3.5t1 -6.5l495 -741q9 -15 0 -33l-495 -895q-5 -10 4 -10h772q10 0 17.5 -7.5t7.5 -17.5v-45
q0 -11 -7.5 -18t-17.5 -7h-875z" />
    <glyph glyph-name="minus" unicode="&#x2212;" horiz-adv-x="1032" 
d="M111 600q-11 0 -18 7t-7 18v45q0 10 7 17t18 7h811q10 0 17 -7t7 -17v-45q0 -11 -7 -18t-17 -7h-811z" />
    <glyph glyph-name="uni2215" unicode="&#x2215;" horiz-adv-x="968" 
d="M98 0q-14 0 -19 8t1 21l715 1386q9 19 28 19h49q14 0 19.5 -8t-0.5 -21l-713 -1387q-9 -18 -28 -18h-52z" />
    <glyph glyph-name="uni2219" unicode="&#x2219;" horiz-adv-x="628" 
d="M315 414q-95 0 -162 68t-67 163t66.5 160t162.5 65q93 0 160.5 -65.5t67.5 -159.5q0 -95 -67.5 -163t-160.5 -68z" />
    <glyph glyph-name="radical" unicode="&#x221a;" horiz-adv-x="1470" 
d="M356 -410q-22 0 -28 21l-254 698q-8 22 16 31l53 16q24 9 31 -14l203 -563q1 -5 5 -5t5 5l490 1816q6 21 28 21h363q10 0 17 -7t7 -18v-45q0 -10 -7 -17t-17 -7h-291q-8 0 -10 -6l-514 -1905q-6 -21 -29 -21h-68z" />
    <glyph glyph-name="infinity" unicode="&#x221e;" horiz-adv-x="1490" 
d="M1094 965q135 0 223 -90.5t88 -223.5t-88 -221t-230 -88q-111 0 -191.5 57t-156.5 166q-6 6 -12 0q-77 -105 -155.5 -164t-180.5 -59q-129 0 -217 90.5t-88 222.5q0 131 88.5 220.5t222.5 89.5q56 0 104.5 -17t89 -50.5t71 -69.5t65.5 -87q8 -8 14 4q90 115 173.5 167.5
t179.5 52.5zM389 430q46 0 86.5 17t77 52.5t61.5 66.5t60 83q3 7 0 13q-36 55 -62.5 88.5t-60.5 65.5t-72.5 46.5t-83.5 14.5q-96 0 -157.5 -63t-61.5 -159q0 -95 62 -160t151 -65zM1090 430q101 0 163 62t62 159t-61.5 161.5t-157.5 64.5q-88 0 -155.5 -55t-147.5 -165
q-3 -6 0 -12q73 -108 138 -161.5t159 -53.5z" />
    <glyph glyph-name="integral" unicode="&#x222b;" horiz-adv-x="841" 
d="M100 -410q-24 0 -24 25l-2 47q0 11 7 18t17 7h45q62 0 103 14.5t64 46.5t32 75t10 107l8 1168q1 104 17.5 167t61 101t109.5 52t173 16q24 0 24 -25l3 -47q0 -10 -7 -17.5t-18 -7.5h-43q-122 0 -166.5 -57t-44.5 -186l-8 -1168q-1 -104 -17.5 -167t-61 -101t-109.5 -52
t-173 -16z" />
    <glyph glyph-name="approxequal" unicode="&#x2248;" horiz-adv-x="1007" 
d="M700 768q-44 0 -88 13.5t-63.5 23.5t-65.5 37q-88 49 -159 49q-100 0 -156 -82q-16 -19 -35 -6l-29 18q-19 13 -8 33q31 62 91 98.5t135 36.5q85 0 178 -53q4 -2 19 -11t19.5 -11.5t18.5 -10t21 -10.5t20.5 -8.5t23 -8t23 -5.5t26.5 -4t27 -1q43 0 74.5 20.5t63.5 59.5
q15 18 34 6l31 -22q19 -13 10 -33q-80 -129 -211 -129zM700 322q-44 0 -87.5 13t-64.5 24t-65 36q-88 49 -159 49q-100 0 -156 -82q-16 -19 -35 -6l-29 19q-19 13 -8 33q31 62 91 98.5t135 36.5q83 0 178 -54q4 -2 12 -7q35 -21 55.5 -31t57 -20.5t73.5 -10.5
q43 0 74.5 20.5t63.5 59.5q15 18 34 6l31 -23q18 -12 10 -32q-80 -129 -211 -129z" />
    <glyph glyph-name="notequal" unicode="&#x2260;" horiz-adv-x="1032" 
d="M946 860q0 -10 -7 -17t-17 -7h-308q-4 0 -8 -7l-157 -323q-3 -10 6 -10h467q10 0 17 -7t7 -18v-45q0 -11 -7 -18t-17 -7h-519q-5 0 -8 -6l-80 -164q-9 -18 -28 -18h-25q-14 0 -19 7.5t1 21.5l71 149q2 3 0 6.5t-6 3.5h-198q-11 0 -18 7.5t-7 17.5v45q0 11 7 18t18 7h249
q6 0 9 6l157 323q4 11 -6 11h-409q-11 0 -18 7t-7 17v45q0 11 7 18t18 7h458q6 0 9 6l98 199q9 18 29 18h24q14 0 19.5 -7.5t-0.5 -21.5l-91 -184q-3 -10 7 -10h258q10 0 17 -7t7 -18v-45z" />
    <glyph glyph-name="lessequal" unicode="&#x2264;" horiz-adv-x="1032" 
d="M946 242q0 -14 -8 -19.5t-20 0.5l-814 383q-18 9 -18 29v61q0 20 18 29l814 383q12 6 20 1t8 -19v-58q0 -19 -18 -28l-723 -332q-13 -6 0 -13l723 -331q18 -9 18 -29v-57zM946 25q0 -11 -7 -18t-17 -7h-811q-11 0 -18 7t-7 18v45q0 10 7 17t18 7h811q10 0 17 -7t7 -17
v-45z" />
    <glyph glyph-name="greaterequal" unicode="&#x2265;" horiz-adv-x="1032" 
d="M115 223q-12 -6 -20.5 -0.5t-8.5 19.5v57q0 20 18 29l723 331q13 7 0 13l-723 332q-18 9 -18 28v58q0 13 8.5 18.5t20.5 -0.5l813 -383q18 -9 18 -29v-61q0 -20 -18 -29zM111 0q-11 0 -18 7t-7 18v45q0 10 7 17t18 7h811q10 0 17 -7t7 -17v-45q0 -11 -7 -18t-17 -7h-811z
" />
    <glyph glyph-name="lozenge" unicode="&#x25ca;" horiz-adv-x="974" 
d="M463 -90q-21 0 -29 18l-340 772q-7 16 0 33l342 772q8 19 29 19h45q21 0 29 -19l342 -772q7 -17 0 -33l-340 -772q-8 -18 -29 -18h-49zM481 33q1 -5 6 -5t7 5l288 678q3 6 0 12l-288 678q-2 5 -7 5t-6 -5l-288 -678q-3 -6 0 -12z" />
    <glyph glyph-name="i.loclTRK" horiz-adv-x="442" 
d="M217 1229q-37 0 -60.5 22.5t-23.5 57.5q0 34 23.5 55.5t60.5 21.5q34 0 56 -21.5t22 -55.5q0 -35 -22 -57.5t-56 -22.5zM188 0q-10 0 -17 7t-7 18v983q0 10 7 17t17 7h60q10 0 17 -7t7 -17v-983q0 -11 -7 -18t-17 -7h-60z" />
    <glyph glyph-name="a.alt" horiz-adv-x="1099" 
d="M813 1008q0 10 7 17t18 7h59q11 0 18 -7t7 -17v-983q0 -11 -7 -18t-18 -7h-59q-10 0 -17.5 7t-7.5 18v92q0 5 -3.5 6.5t-6.5 -2.5q-45 -65 -116 -101t-159 -36q-140 0 -236 73.5t-130 198.5q-23 89 -23 258q0 176 21 258q33 127 129.5 202t238.5 75q88 0 159 -36.5
t116 -101.5q3 -4 6.5 -2.5t3.5 6.5v93zM788 272q25 73 25 242q0 108 -6 158t-21 92q-21 83 -85.5 135.5t-159.5 52.5q-97 0 -166.5 -52t-93.5 -134q-17 -43 -25 -93t-8 -157q0 -103 6 -151.5t20 -92.5q22 -87 94 -139.5t173 -52.5q96 0 160 53t87 139z" />
    <glyph glyph-name="a.sc" horiz-adv-x="1052" 
d="M899 0q-20 0 -27 20l-69 209q-2 7 -8 7h-537q-6 0 -8 -7l-70 -209q-7 -20 -26 -20h-60q-12 0 -17 8t-1 21l383 1130q7 21 26 21h78q20 0 27 -21l387 -1130q4 -13 -1.5 -21t-17.5 -8h-59zM287 336q-2 -3 0 -6.5t6 -3.5h467q4 0 6 3.5t0 6.5l-234 711q-2 5 -6 5t-6 -5z" />
    <glyph glyph-name="aacute.sc" horiz-adv-x="1052" 
d="M664 1595q14 0 18.5 -7.5t-2.5 -20.5l-131 -219q-9 -17 -29 -17h-47q-13 0 -17.5 8.5t1.5 20.5l121 219q10 16 30 16h56zM899 0q-20 0 -27 20l-69 209q-2 7 -8 7h-537q-6 0 -8 -7l-70 -209q-7 -20 -26 -20h-60q-12 0 -17 8t-1 21l383 1130q7 21 26 21h78q20 0 27 -21
l387 -1130q4 -13 -1.5 -21t-17.5 -8h-59zM287 336q-2 -3 0 -6.5t6 -3.5h467q4 0 6 3.5t0 6.5l-234 711q-2 5 -6 5t-6 -5z" />
    <glyph glyph-name="abreve.sc" horiz-adv-x="1052" 
d="M524 1262q-83 0 -143.5 53t-69.5 133q-3 25 23 25h22q24 0 27 -25q7 -52 47.5 -86.5t93.5 -34.5q54 0 95.5 34.5t48.5 86.5q3 25 26 25h23q25 0 22 -25q-9 -80 -70 -133t-145 -53zM899 0q-20 0 -27 20l-69 209q-2 7 -8 7h-537q-6 0 -8 -7l-70 -209q-7 -20 -26 -20h-60
q-12 0 -17 8t-1 21l383 1130q7 21 26 21h78q20 0 27 -21l387 -1130q4 -13 -1.5 -21t-17.5 -8h-59zM287 336q-2 -3 0 -6.5t6 -3.5h467q4 0 6 3.5t0 6.5l-234 711q-2 5 -6 5t-6 -5z" />
    <glyph glyph-name="uni01CE.sc" horiz-adv-x="1052" 
d="M586 1307q-12 -15 -29 -15h-70q-16 0 -28 15l-160 213q-9 12 -5 21t19 9h41q20 0 31 -14l133 -176q2 -3 6 -3t6 3l134 176q11 14 28 14h41q15 0 19.5 -9t-4.5 -21zM899 0q-20 0 -27 20l-69 209q-2 7 -8 7h-537q-6 0 -8 -7l-70 -209q-7 -20 -26 -20h-60q-12 0 -17 8t-1 21
l383 1130q7 21 26 21h78q20 0 27 -21l387 -1130q4 -13 -1.5 -21t-17.5 -8h-59zM287 336q-2 -3 0 -6.5t6 -3.5h467q4 0 6 3.5t0 6.5l-234 711q-2 5 -6 5t-6 -5z" />
    <glyph glyph-name="acircumflex.sc" horiz-adv-x="1052" 
d="M530 1505q-2 3 -6 3t-6 -3l-133 -176q-11 -14 -31 -14h-45q-15 0 -19 9.5t5 21.5l164 213q11 14 30 14h64q20 0 31 -14l166 -213q9 -12 3.5 -21.5t-20.5 -9.5h-43q-17 0 -28 14zM899 0q-20 0 -27 20l-69 209q-2 7 -8 7h-537q-6 0 -8 -7l-70 -209q-7 -20 -26 -20h-60
q-12 0 -17 8t-1 21l383 1130q7 21 26 21h78q20 0 27 -21l387 -1130q4 -13 -1.5 -21t-17.5 -8h-59zM287 336q-2 -3 0 -6.5t6 -3.5h467q4 0 6 3.5t0 6.5l-234 711q-2 5 -6 5t-6 -5z" />
    <glyph glyph-name="adieresis.sc" horiz-adv-x="1052" 
d="M358 1391q-37 0 -61.5 23.5t-24.5 60.5q0 34 24.5 57.5t61.5 23.5q36 0 60 -23.5t24 -57.5q0 -37 -23.5 -60.5t-60.5 -23.5zM692 1391q-38 0 -63 23.5t-25 60.5q0 34 25 57.5t63 23.5q35 0 58.5 -23.5t23.5 -57.5q0 -37 -23.5 -60.5t-58.5 -23.5zM899 0q-20 0 -27 20
l-69 209q-2 7 -8 7h-537q-6 0 -8 -7l-70 -209q-7 -20 -26 -20h-60q-12 0 -17 8t-1 21l383 1130q7 21 26 21h78q20 0 27 -21l387 -1130q4 -13 -1.5 -21t-17.5 -8h-59zM287 336q-2 -3 0 -6.5t6 -3.5h467q4 0 6 3.5t0 6.5l-234 711q-2 5 -6 5t-6 -5z" />
    <glyph glyph-name="agrave.sc" horiz-adv-x="1052" 
d="M553 1360q6 -12 1.5 -20.5t-17.5 -8.5h-48q-19 0 -28 17l-131 219q-7 13 -2.5 20.5t18.5 7.5h55q21 0 31 -16zM899 0q-20 0 -27 20l-69 209q-2 7 -8 7h-537q-6 0 -8 -7l-70 -209q-7 -20 -26 -20h-60q-12 0 -17 8t-1 21l383 1130q7 21 26 21h78q20 0 27 -21l387 -1130
q4 -13 -1.5 -21t-17.5 -8h-59zM287 336q-2 -3 0 -6.5t6 -3.5h467q4 0 6 3.5t0 6.5l-234 711q-2 5 -6 5t-6 -5z" />
    <glyph glyph-name="amacron.sc" horiz-adv-x="1052" 
d="M768 1454q11 0 18 -7t7 -17v-33q0 -11 -7.5 -18t-17.5 -7h-487q-11 0 -18 7t-7 18v33q0 10 7 17t18 7h487zM899 0q-20 0 -27 20l-69 209q-2 7 -8 7h-537q-6 0 -8 -7l-70 -209q-7 -20 -26 -20h-60q-12 0 -17 8t-1 21l383 1130q7 21 26 21h78q20 0 27 -21l387 -1130
q4 -13 -1.5 -21t-17.5 -8h-59zM287 336q-2 -3 0 -6.5t6 -3.5h467q4 0 6 3.5t0 6.5l-234 711q-2 5 -6 5t-6 -5z" />
    <glyph glyph-name="aogonek.sc" horiz-adv-x="1103" 
d="M999 -301q22 6 29 -18l4 -21q7 -24 -16 -31q-49 -7 -98 -5.5t-91.5 32t-56.5 88.5q-30 134 121 250q5 6 -2 8q-13 3 -17 18l-69 209q-2 7 -8 7h-537q-6 0 -8 -7l-70 -209q-7 -20 -26 -20h-60q-12 0 -17 8t-1 21l383 1130q7 21 26 21h78q20 0 27 -21l391 -1139l6 -20
l-8 -4q-148 -116 -127 -223q10 -51 50.5 -68t96.5 -6zM287 336q-2 -3 0 -6.5t6 -3.5h467q4 0 6 3.5t0 6.5l-234 711q-2 5 -6 5t-6 -5z" />
    <glyph glyph-name="aring.sc" horiz-adv-x="1052" 
d="M524 1317q-88 0 -148.5 60.5t-60.5 146.5t60.5 145.5t148.5 59.5t149.5 -59.5t61.5 -145.5t-61.5 -146.5t-149.5 -60.5zM524 1665q-59 0 -100 -40.5t-41 -100.5t41 -101t100 -41t101.5 41.5t42.5 100.5t-42.5 100t-101.5 41zM899 0q-20 0 -27 20l-69 209q-2 7 -8 7h-537
q-6 0 -8 -7l-70 -209q-7 -20 -26 -20h-60q-12 0 -17 8t-1 21l383 1130q7 21 26 21h78q20 0 27 -21l387 -1130q4 -13 -1.5 -21t-17.5 -8h-59zM287 336q-2 -3 0 -6.5t6 -3.5h467q4 0 6 3.5t0 6.5l-234 711q-2 5 -6 5t-6 -5z" />
    <glyph glyph-name="atilde.sc" horiz-adv-x="1052" 
d="M436 1460q-32 0 -54.5 -11t-47.5 -42q-16 -19 -35 -6l-18 12q-22 16 -9 35q59 94 158 94q24 0 48.5 -8.5t35.5 -14.5t39 -24q3 -2 19 -12t22 -13t18.5 -9.5t22.5 -8.5t20 -2q61 0 101 59q17 21 35 9l18 -13q19 -13 10 -32q-31 -53 -77 -79t-89 -26q-53 0 -123 49
q-21 16 -32 23t-27.5 13.5t-34.5 6.5zM899 0q-20 0 -27 20l-69 209q-2 7 -8 7h-537q-6 0 -8 -7l-70 -209q-7 -20 -26 -20h-60q-12 0 -17 8t-1 21l383 1130q7 21 26 21h78q20 0 27 -21l387 -1130q4 -13 -1.5 -21t-17.5 -8h-59zM287 336q-2 -3 0 -6.5t6 -3.5h467q4 0 6 3.5
t0 6.5l-234 711q-2 5 -6 5t-6 -5z" />
    <glyph glyph-name="ae.sc" horiz-adv-x="1613" 
d="M1507 1108q0 -11 -7 -18t-17 -7h-594q-8 0 -8 -8v-426q0 -8 8 -8h399q10 0 17.5 -7.5t7.5 -17.5v-47q0 -10 -7 -17t-18 -7h-399q-8 0 -8 -8v-433q0 -8 8 -8h594q11 0 17.5 -7t6.5 -17v-47q0 -11 -7 -18t-17 -7h-688q-11 0 -18 7t-7 18v202q0 9 -8 9h-440q-8 0 -11 -7
l-114 -213q-10 -16 -31 -16h-68q-13 0 -17.5 8.5t1.5 20.5l625 1134q10 17 30 17h746q10 0 17 -7t7 -18v-47zM371 336q-5 -10 4 -10h387q8 0 8 8v713q0 4 -1.5 5.5t-4 0.5t-4.5 -4z" />
    <glyph glyph-name="b.sc" horiz-adv-x="1101" 
d="M780 614q-6 -2 -6 -4t6 -4q93 -37 143 -111t50 -176q0 -150 -99.5 -234.5t-261.5 -84.5h-415q-11 0 -18 7t-7 18v1130q0 11 7 18t18 7h403q165 0 261.5 -81.5t96.5 -228.5q0 -185 -178 -256zM289 1083q-8 0 -8 -8v-413q0 -9 8 -9h317q110 0 178 58.5t68 152.5
q0 99 -67.5 159t-178.5 60h-317zM616 98q111 0 179.5 63.5t68.5 168.5q0 103 -70 167t-184 64h-321q-8 0 -8 -8v-447q0 -8 8 -8h327z" />
    <glyph glyph-name="c.sc" horiz-adv-x="1062" 
d="M541 -16q-186 0 -297 107t-111 288v426q0 178 111 283.5t297 105.5q182 0 292.5 -104.5t110.5 -278.5q0 -9 -7 -16t-17 -7l-60 -2q-24 0 -24 11v12q0 131 -80 207t-215 82q-134 6 -216.5 -74.5t-82.5 -214.5v-436q0 -133 82 -213t217 -80q133 0 214 80t81 213q0 20 24 20
l60 -2q10 0 17 -3.5t7 -6.5v-8q0 -178 -110.5 -283.5t-292.5 -105.5z" />
    <glyph glyph-name="cacute.sc" horiz-adv-x="1062" 
d="M489 1346q-13 0 -17.5 8t1.5 20l121 219q10 17 31 17h55q14 0 18.5 -8t-2.5 -21l-131 -219q-8 -16 -28 -16h-48zM541 -16q-186 0 -297 107t-111 288v426q0 178 111 283.5t297 105.5q182 0 292.5 -104.5t110.5 -278.5q0 -9 -7 -16t-17 -7l-60 -2q-24 0 -24 11v12
q0 131 -80 207t-215 82q-134 6 -216.5 -74.5t-82.5 -214.5v-436q0 -133 82 -213t217 -80q133 0 214 80t81 213q0 20 24 20l60 -2q10 0 17 -3.5t7 -6.5v-8q0 -178 -110.5 -283.5t-292.5 -105.5z" />
    <glyph glyph-name="ccaron.sc" horiz-adv-x="1062" 
d="M504 1307q-18 0 -29 14l-160 213q-9 12 -4.5 21.5t19.5 9.5h41q18 0 30 -15l134 -176q1 -3 6 -3t6 3l133 176q12 15 29 15h41q15 0 19 -9.5t-5 -21.5l-162 -213q-11 -14 -29 -14h-69zM541 -16q-186 0 -297 107t-111 288v426q0 178 111 283.5t297 105.5
q182 0 292.5 -104.5t110.5 -278.5q0 -9 -7 -16t-17 -7l-60 -2q-24 0 -24 11v12q0 131 -80 207t-215 82q-134 6 -216.5 -74.5t-82.5 -214.5v-436q0 -133 82 -213t217 -80q133 0 214 80t81 213q0 20 24 20l60 -2q10 0 17 -3.5t7 -6.5v-8q0 -178 -110.5 -283.5t-292.5 -105.5z
" />
    <glyph glyph-name="ccedilla.sc" horiz-adv-x="1062" 
d="M944 801q0 -5 -7 -9t-17 -4l-60 -2q-24 0 -24 11v12q0 131 -80 207t-215 82q-134 6 -216.5 -74.5t-82.5 -214.5v-436q0 -133 82 -213t217 -80q133 0 214 80t81 213q0 20 24 20l60 -2q10 0 17 -3.5t7 -6.5v-8q0 -178 -110.5 -283.5t-292.5 -105.5q-11 0 0 -11
q129 -112 100 -233q-14 -58 -56.5 -88.5t-91.5 -32t-98 5.5q-21 6 -18 29l4 22q7 25 31 19q56 -11 96.5 6t50.5 68q11 58 -26 116t-103 107q-1 1 -10 6q-133 31 -210 131.5t-77 249.5v426q0 178 111 283.5t297 105.5q182 0 292.5 -104.5t110.5 -278.5v-10z" />
    <glyph glyph-name="cdotaccent.sc" horiz-adv-x="1062" 
d="M541 1372q-37 0 -60.5 22.5t-23.5 57.5q0 34 23.5 56t60.5 22q34 0 55.5 -22t21.5 -56q0 -35 -21.5 -57.5t-55.5 -22.5zM541 -16q-186 0 -297 107t-111 288v426q0 178 111 283.5t297 105.5q182 0 292.5 -104.5t110.5 -278.5q0 -9 -7 -16t-17 -7l-60 -2q-24 0 -24 11v12
q0 131 -80 207t-215 82q-134 6 -216.5 -74.5t-82.5 -214.5v-436q0 -133 82 -213t217 -80q133 0 214 80t81 213q0 20 24 20l60 -2q10 0 17 -3.5t7 -6.5v-8q0 -178 -110.5 -283.5t-292.5 -105.5z" />
    <glyph glyph-name="d.sc" horiz-adv-x="1083" 
d="M197 0q-11 0 -18 7t-7 18v1130q0 11 7 18t18 7h403q170 0 271.5 -87t101.5 -235v-534q0 -149 -101 -236.5t-272 -87.5h-403zM281 104q0 -8 8 -8h317q117 0 187 65t71 175v508q0 110 -69.5 174.5t-188.5 64.5h-317q-8 0 -8 -8v-971z" />
    <glyph glyph-name="eth.sc" horiz-adv-x="1202" 
d="M719 1180q170 0 271.5 -87t101.5 -235v-534q0 -149 -101 -236.5t-272 -87.5h-404q-10 0 -17 7t-7 18v538q0 8 -8 8h-86q-11 0 -18 7.5t-7 17.5v31q0 10 7 17t18 7h86q8 0 8 8v496q0 11 7 18t17 7h404zM983 336v508q0 110 -69.5 174.5t-188.5 64.5h-317q-9 0 -9 -8v-416
q0 -8 9 -8h206q11 0 18 -7t7 -17v-31q0 -10 -7.5 -17.5t-17.5 -7.5h-206q-9 0 -9 -8v-459q0 -8 9 -8h317q117 0 187 65t71 175z" />
    <glyph glyph-name="dcaron.sc" horiz-adv-x="1083" 
d="M510 1300q-17 0 -29 15l-159 213q-9 12 -5 21.5t19 9.5h41q19 0 31 -15l133 -176q1 -3 6 -3t6 3l133 176q12 15 29 15h41q15 0 19 -9.5t-5 -21.5l-162 -213q-12 -15 -28 -15h-70zM197 0q-11 0 -18 7t-7 18v1130q0 11 7 18t18 7h403q170 0 271.5 -87t101.5 -235v-534
q0 -149 -101 -236.5t-272 -87.5h-403zM281 104q0 -8 8 -8h317q117 0 187 65t71 175v508q0 110 -69.5 174.5t-188.5 64.5h-317q-8 0 -8 -8v-971z" />
    <glyph glyph-name="dcroat.sc" horiz-adv-x="1202" 
d="M719 1180q170 0 271.5 -87t101.5 -235v-534q0 -149 -101 -236.5t-272 -87.5h-404q-10 0 -17 7t-7 18v538q0 8 -8 8h-86q-11 0 -18 7.5t-7 17.5v31q0 10 7 17t18 7h86q8 0 8 8v496q0 11 7 18t17 7h404zM983 336v508q0 110 -69.5 174.5t-188.5 64.5h-317q-9 0 -9 -8v-416
q0 -8 9 -8h206q11 0 18 -7t7 -17v-31q0 -10 -7.5 -17.5t-17.5 -7.5h-206q-9 0 -9 -8v-459q0 -8 9 -8h317q117 0 187 65t71 175z" />
    <glyph glyph-name="e.sc" horiz-adv-x="1067" 
d="M961 1106q0 -10 -7.5 -17.5t-17.5 -7.5h-647q-8 0 -8 -8v-424q0 -8 8 -8h454q11 0 18 -7.5t7 -17.5v-47q0 -10 -7 -17t-18 -7h-454q-8 0 -8 -8v-433q0 -8 8 -8h647q11 0 18 -7t7 -17v-47q0 -11 -7.5 -18t-17.5 -7h-739q-11 0 -18 7t-7 18v1130q0 11 7 18t18 7h739
q10 0 17.5 -7t7.5 -18v-49z" />
    <glyph glyph-name="eacute.sc" horiz-adv-x="1067" 
d="M668 1614q14 0 18.5 -8t-2.5 -21l-131 -219q-8 -16 -29 -16h-47q-13 0 -17.5 8t1.5 20l121 219q10 17 30 17h56zM961 1106q0 -10 -7.5 -17.5t-17.5 -7.5h-647q-8 0 -8 -8v-424q0 -8 8 -8h454q11 0 18 -7.5t7 -17.5v-47q0 -10 -7 -17t-18 -7h-454q-8 0 -8 -8v-433
q0 -8 8 -8h647q11 0 18 -7t7 -17v-47q0 -11 -7.5 -18t-17.5 -7h-739q-11 0 -18 7t-7 18v1130q0 11 7 18t18 7h739q10 0 17.5 -7t7.5 -18v-49z" />
    <glyph glyph-name="ecaron.sc" horiz-adv-x="1067" 
d="M590 1325q-11 -14 -29 -14h-69q-18 0 -29 14l-160 213q-9 12 -5 21.5t19 9.5h41q19 0 31 -15l133 -176q2 -3 7 -3t6 3l133 176q12 15 28 15h41q15 0 19.5 -9.5t-4.5 -21.5zM961 1106q0 -10 -7.5 -17.5t-17.5 -7.5h-647q-8 0 -8 -8v-424q0 -8 8 -8h454q11 0 18 -7.5
t7 -17.5v-47q0 -10 -7 -17t-18 -7h-454q-8 0 -8 -8v-433q0 -8 8 -8h647q11 0 18 -7t7 -17v-47q0 -11 -7.5 -18t-17.5 -7h-739q-11 0 -18 7t-7 18v1130q0 11 7 18t18 7h739q10 0 17.5 -7t7.5 -18v-49z" />
    <glyph glyph-name="uni0229.sc" horiz-adv-x="1067" 
d="M961 1106q0 -10 -7.5 -17.5t-17.5 -7.5h-647q-8 0 -8 -8v-424q0 -8 8 -8h454q11 0 18 -7.5t7 -17.5v-47q0 -10 -7 -17t-18 -7h-454q-8 0 -8 -8v-433q0 -8 8 -8h647q11 0 18 -7t7 -17v-47q0 -11 -7.5 -18t-17.5 -7h-354q-5 0 -6.5 -3t2.5 -7q130 -112 100 -234
q-14 -57 -56.5 -88t-91.5 -32t-98 6q-21 6 -18 28l4 23q7 24 31 18q56 -11 96.5 6t50.5 68q19 103 -113 211q-2 4 -10 4h-276q-11 0 -18 7t-7 18v1130q0 11 7 18t18 7h739q10 0 17.5 -7t7.5 -18v-49z" />
    <glyph glyph-name="ecircumflex.sc" horiz-adv-x="1067" 
d="M535 1524q-1 3 -6 3t-7 -3l-133 -176q-12 -15 -31 -15h-45q-15 0 -19 9.5t5 21.5l164 213q11 14 31 14h63q20 0 31 -14l166 -213q9 -12 3.5 -21.5t-20.5 -9.5h-43q-16 0 -28 15zM961 1106q0 -10 -7.5 -17.5t-17.5 -7.5h-647q-8 0 -8 -8v-424q0 -8 8 -8h454q11 0 18 -7.5
t7 -17.5v-47q0 -10 -7 -17t-18 -7h-454q-8 0 -8 -8v-433q0 -8 8 -8h647q11 0 18 -7t7 -17v-47q0 -11 -7.5 -18t-17.5 -7h-739q-11 0 -18 7t-7 18v1130q0 11 7 18t18 7h739q10 0 17.5 -7t7.5 -18v-49z" />
    <glyph glyph-name="edieresis.sc" horiz-adv-x="1067" 
d="M362 1409q-37 0 -61.5 23.5t-24.5 60.5q0 34 25 58t61 24t60 -24t24 -58q0 -37 -23.5 -60.5t-60.5 -23.5zM696 1409q-38 0 -63 23.5t-25 60.5q0 34 25 58t63 24q35 0 58.5 -24t23.5 -58q0 -37 -23.5 -60.5t-58.5 -23.5zM961 1106q0 -10 -7.5 -17.5t-17.5 -7.5h-647
q-8 0 -8 -8v-424q0 -8 8 -8h454q11 0 18 -7.5t7 -17.5v-47q0 -10 -7 -17t-18 -7h-454q-8 0 -8 -8v-433q0 -8 8 -8h647q11 0 18 -7t7 -17v-47q0 -11 -7.5 -18t-17.5 -7h-739q-11 0 -18 7t-7 18v1130q0 11 7 18t18 7h739q10 0 17.5 -7t7.5 -18v-49z" />
    <glyph glyph-name="edotaccent.sc" horiz-adv-x="1067" 
d="M528 1376q-37 0 -60.5 22.5t-23.5 57.5q0 34 23.5 56t60.5 22q34 0 56 -22t22 -56q0 -35 -22 -57.5t-56 -22.5zM961 1106q0 -10 -7.5 -17.5t-17.5 -7.5h-647q-8 0 -8 -8v-424q0 -8 8 -8h454q11 0 18 -7.5t7 -17.5v-47q0 -10 -7 -17t-18 -7h-454q-8 0 -8 -8v-433
q0 -8 8 -8h647q11 0 18 -7t7 -17v-47q0 -11 -7.5 -18t-17.5 -7h-739q-11 0 -18 7t-7 18v1130q0 11 7 18t18 7h739q10 0 17.5 -7t7.5 -18v-49z" />
    <glyph glyph-name="egrave.sc" horiz-adv-x="1067" 
d="M557 1378q6 -12 1.5 -20t-17.5 -8h-47q-21 0 -29 16l-131 219q-7 13 -2.5 21t18.5 8h56q20 0 30 -17zM961 1106q0 -10 -7.5 -17.5t-17.5 -7.5h-647q-8 0 -8 -8v-424q0 -8 8 -8h454q11 0 18 -7.5t7 -17.5v-47q0 -10 -7 -17t-18 -7h-454q-8 0 -8 -8v-433q0 -8 8 -8h647
q11 0 18 -7t7 -17v-47q0 -11 -7.5 -18t-17.5 -7h-739q-11 0 -18 7t-7 18v1130q0 11 7 18t18 7h739q10 0 17.5 -7t7.5 -18v-49z" />
    <glyph glyph-name="emacron.sc" horiz-adv-x="1067" 
d="M772 1473q10 0 17.5 -7.5t7.5 -17.5v-33q0 -10 -7 -17t-18 -7h-487q-11 0 -18 7t-7 17v33q0 10 7 17.5t18 7.5h487zM961 1106q0 -10 -7.5 -17.5t-17.5 -7.5h-647q-8 0 -8 -8v-424q0 -8 8 -8h454q11 0 18 -7.5t7 -17.5v-47q0 -10 -7 -17t-18 -7h-454q-8 0 -8 -8v-433
q0 -8 8 -8h647q11 0 18 -7t7 -17v-47q0 -11 -7.5 -18t-17.5 -7h-739q-11 0 -18 7t-7 18v1130q0 11 7 18t18 7h739q10 0 17.5 -7t7.5 -18v-49z" />
    <glyph glyph-name="eogonek.sc" horiz-adv-x="1067" 
d="M961 1106q0 -10 -7.5 -17.5t-17.5 -7.5h-647q-8 0 -8 -8v-424q0 -8 8 -8h454q11 0 18 -7.5t7 -17.5v-47q0 -10 -7 -17t-18 -7h-454q-8 0 -8 -8v-433q0 -8 8 -8h647q11 0 18 -7t7 -17v-47q0 -11 -7.5 -18t-17.5 -7h-365q-6 0 -10 -4q-129 -106 -110 -209q10 -51 50.5 -68
t96.5 -6q22 6 29 -18l4 -21q7 -23 -17 -30q-34 -9 -73 -7t-73 11t-61.5 37.5t-37.5 72.5q-30 121 98 232q4 4 2.5 7t-6.5 3h-266q-11 0 -18 7t-7 18v1130q0 11 7 18t18 7h739q10 0 17.5 -7t7.5 -18v-49z" />
    <glyph glyph-name="f.sc" horiz-adv-x="995" 
d="M958 1108q0 -11 -7 -18t-17 -7h-645q-8 0 -8 -8v-426q0 -8 8 -8h452q11 0 18 -7.5t7 -17.5v-47q0 -10 -7 -17t-18 -7h-452q-8 0 -8 -8v-512q0 -11 -7.5 -18t-17.5 -7h-59q-11 0 -18 7t-7 18v1130q0 11 7 18t18 7h737q10 0 17 -7t7 -18v-47z" />
    <glyph glyph-name="g.sc" horiz-adv-x="1105" 
d="M563 -14q-195 0 -309.5 108.5t-114.5 302.5v387q0 194 114.5 302t309.5 108q190 0 304 -106.5t114 -294.5q0 -10 -7 -16.5t-18 -6.5h-59q-25 0 -25 12v11q0 147 -83.5 227t-225.5 80q-145 0 -230 -82.5t-85 -237.5v-385q0 -151 85.5 -232t229.5 -81q143 0 226 81t83 232
v90q0 9 -8 9h-262q-10 0 -17 7t-7 17v47q0 11 7 18t17 7h354q10 0 17.5 -7t7.5 -18v-168q0 -194 -113.5 -302.5t-304.5 -108.5z" />
    <glyph glyph-name="gbreve.sc" horiz-adv-x="1105" 
d="M561 1276q-83 0 -143.5 53t-69.5 133q-3 25 23 25h22q24 0 27 -25q7 -52 47.5 -86.5t93.5 -34.5q54 0 95.5 34.5t48.5 86.5q3 25 26 25h23q25 0 22 -25q-9 -80 -70 -133t-145 -53zM563 -14q-195 0 -309.5 108.5t-114.5 302.5v387q0 194 114.5 302t309.5 108
q190 0 304 -106.5t114 -294.5q0 -10 -7 -16.5t-18 -6.5h-59q-25 0 -25 12v11q0 147 -83.5 227t-225.5 80q-145 0 -230 -82.5t-85 -237.5v-385q0 -151 85.5 -232t229.5 -81q143 0 226 81t83 232v90q0 9 -8 9h-262q-10 0 -17 7t-7 17v47q0 11 7 18t17 7h354q10 0 17.5 -7
t7.5 -18v-168q0 -194 -113.5 -302.5t-304.5 -108.5z" />
    <glyph glyph-name="uni0123.sc" horiz-adv-x="1105" 
d="M563 -14q-195 0 -309.5 108.5t-114.5 302.5v387q0 194 114.5 302t309.5 108q190 0 304 -106.5t114 -294.5q0 -10 -7 -16.5t-18 -6.5h-59q-25 0 -25 12v11q0 147 -83.5 227t-225.5 80q-145 0 -230 -82.5t-85 -237.5v-385q0 -151 85.5 -232t229.5 -81q143 0 226 81t83 232
v90q0 9 -8 9h-262q-10 0 -17 7t-7 17v47q0 11 7 18t17 7h354q10 0 17.5 -7t7.5 -18v-168q0 -194 -113.5 -302.5t-304.5 -108.5zM457 -399q-13 0 -18 8t1 20l121 219q10 17 31 17h55q14 0 19 -7.5t-2 -21.5l-132 -219q-8 -16 -28 -16h-47z" />
    <glyph glyph-name="gdotaccent.sc" horiz-adv-x="1105" 
d="M561 1372q-37 0 -60.5 22.5t-23.5 57.5q0 34 23.5 56t60.5 22q34 0 56 -22t22 -56q0 -35 -22 -57.5t-56 -22.5zM563 -14q-195 0 -309.5 108.5t-114.5 302.5v387q0 194 114.5 302t309.5 108q190 0 304 -106.5t114 -294.5q0 -10 -7 -16.5t-18 -6.5h-59q-25 0 -25 12v11
q0 147 -83.5 227t-225.5 80q-145 0 -230 -82.5t-85 -237.5v-385q0 -151 85.5 -232t229.5 -81q143 0 226 81t83 232v90q0 9 -8 9h-262q-10 0 -17 7t-7 17v47q0 11 7 18t17 7h354q10 0 17.5 -7t7.5 -18v-168q0 -194 -113.5 -302.5t-304.5 -108.5z" />
    <glyph glyph-name="h.sc" horiz-adv-x="1153" 
d="M877 1155q0 11 7 18t17 7h60q10 0 17 -7t7 -18v-1130q0 -11 -7 -18t-17 -7h-60q-10 0 -17 7t-7 18v512q0 8 -9 8h-579q-8 0 -8 -8v-512q0 -11 -7.5 -18t-17.5 -7h-59q-11 0 -18 7t-7 18v1130q0 11 7 18t18 7h59q10 0 17.5 -7t7.5 -18v-506q0 -8 8 -8h579q9 0 9 8v506z
" />
    <glyph glyph-name="hbar.sc" horiz-adv-x="1153" 
d="M1151 944q11 0 18 -7t7 -17v-35q0 -11 -7 -18t-18 -7h-158q-8 0 -8 -8v-827q0 -11 -7 -18t-17 -7h-60q-10 0 -17 7t-7 18v512q0 8 -9 8h-579q-8 0 -8 -8v-512q0 -11 -7.5 -18t-17.5 -7h-59q-11 0 -18 7t-7 18v827q0 8 -8 8h-154q-10 0 -17 7t-7 18v35q0 10 7 17t17 7h154
q8 0 8 8v203q0 11 7 18t18 7h59q10 0 17.5 -7t7.5 -18v-203q0 -8 8 -8h579q9 0 9 8v203q0 11 7 18t17 7h60q10 0 17 -7t7 -18v-203q0 -8 8 -8h158zM868 641q9 0 9 8v203q0 8 -9 8h-579q-8 0 -8 -8v-203q0 -8 8 -8h579z" />
    <glyph glyph-name="i.sc" horiz-adv-x="454" 
d="M197 0q-11 0 -18 7t-7 18v1130q0 11 7 18t18 7h59q10 0 17.5 -7t7.5 -18v-1130q0 -11 -7.5 -18t-17.5 -7h-59z" />
    <glyph glyph-name="iacute.sc" horiz-adv-x="454" 
d="M176 1350q-13 0 -17.5 8t1.5 20l121 219q10 17 30 17h56q14 0 18.5 -8t-2.5 -21l-131 -219q-8 -16 -29 -16h-47zM197 0q-11 0 -18 7t-7 18v1130q0 11 7 18t18 7h59q10 0 17.5 -7t7.5 -18v-1130q0 -11 -7.5 -18t-17.5 -7h-59z" />
    <glyph glyph-name="icircumflex.sc" horiz-adv-x="454" 
d="M12 1333q-15 0 -19 9.5t5 21.5l164 213q11 14 31 14h63q20 0 31 -14l166 -213q9 -12 3.5 -21.5t-20.5 -9.5h-43q-16 0 -28 15l-132 176q-1 3 -6 3t-6 -3l-133 -176q-12 -15 -31 -15h-45zM197 0q-11 0 -18 7t-7 18v1130q0 11 7 18t18 7h59q10 0 17.5 -7t7.5 -18v-1130
q0 -11 -7.5 -18t-17.5 -7h-59z" />
    <glyph glyph-name="idieresis.sc" horiz-adv-x="454" 
d="M61 1409q-37 0 -61.5 23.5t-24.5 60.5q0 34 25 58t61 24t60 -24t24 -58q0 -37 -23.5 -60.5t-60.5 -23.5zM395 1409q-38 0 -63 23.5t-25 60.5q0 34 25 58t63 24q35 0 58.5 -24t23.5 -58q0 -37 -23.5 -60.5t-58.5 -23.5zM197 0q-11 0 -18 7t-7 18v1130q0 11 7 18t18 7h59
q10 0 17.5 -7t7.5 -18v-1130q0 -11 -7.5 -18t-17.5 -7h-59z" />
    <glyph glyph-name="i.sc.loclTRK" horiz-adv-x="454" 
d="M227 1376q-37 0 -60.5 22.5t-23.5 57.5q0 34 23.5 56t60.5 22q34 0 56 -22t22 -56q0 -35 -22 -57.5t-56 -22.5zM197 0q-11 0 -18 7t-7 18v1130q0 11 7 18t18 7h59q10 0 17.5 -7t7.5 -18v-1130q0 -11 -7.5 -18t-17.5 -7h-59z" />
    <glyph glyph-name="igrave.sc" horiz-adv-x="454" 
d="M256 1378q6 -12 1.5 -20t-17.5 -8h-47q-21 0 -29 16l-131 219q-7 13 -2.5 21t18.5 8h55q21 0 31 -17zM197 0q-11 0 -18 7t-7 18v1130q0 11 7 18t18 7h59q10 0 17.5 -7t7.5 -18v-1130q0 -11 -7.5 -18t-17.5 -7h-59z" />
    <glyph glyph-name="ij.sc" horiz-adv-x="1468" 
d="M197 0q-11 0 -18 7t-7 18v1130q0 11 7 18t18 7h59q10 0 17.5 -7t7.5 -18v-1130q0 -11 -7.5 -18t-17.5 -7h-59zM901 -14q-179 0 -286 103.5t-107 277.5v55q0 10 7 17t17 7h60q10 0 17 -7t7 -17v-57q0 -130 77.5 -206.5t207.5 -76.5t208.5 76.5t78.5 206.5v790q0 11 7 18
t17 7h60q10 0 17 -7t7 -18v-788q0 -174 -108.5 -277.5t-286.5 -103.5z" />
    <glyph glyph-name="imacron.sc" horiz-adv-x="454" 
d="M-16 1391q-11 0 -18 7t-7 17v33q0 10 7.5 17.5t17.5 7.5h487q11 0 18 -7.5t7 -17.5v-33q0 -10 -7 -17t-18 -7h-487zM197 0q-11 0 -18 7t-7 18v1130q0 11 7 18t18 7h59q10 0 17.5 -7t7.5 -18v-1130q0 -11 -7.5 -18t-17.5 -7h-59z" />
    <glyph glyph-name="iogonek.sc" horiz-adv-x="491" 
d="M299 -301q22 6 29 -18l4 -21q7 -24 -17 -31q-49 -7 -98 -5.5t-91 32t-56 88.5q-30 133 118 248l11 8h-2q-11 0 -18 7t-7 18v1130q0 11 7 18t18 7h59q10 0 17.5 -7t7.5 -18v-1149q0 -8 -5 -10q-2 -4 -28 -25q-114 -103 -96 -198q10 -51 50.5 -68t96.5 -6z" />
    <glyph glyph-name="j.sc" horiz-adv-x="1013" 
d="M446 -14q-179 0 -286 103.5t-107 277.5v55q0 10 7 17t18 7h59q11 0 18 -7t7 -17v-57q0 -130 77.5 -206.5t206.5 -76.5q130 0 208.5 76.5t78.5 206.5v790q0 11 7.5 18t17.5 7h59q11 0 18 -7t7 -18v-788q0 -174 -109 -277.5t-287 -103.5z" />
    <glyph glyph-name="k.sc" horiz-adv-x="1067" 
d="M197 0q-11 0 -18 7t-7 18v1130q0 11 7 18t18 7h59q10 0 17.5 -7t7.5 -18v-573q0 -4 3.5 -5.5t6.5 1.5l569 589q13 13 31 13h61q15 0 19.5 -10t-6.5 -21l-420 -451q-4 -4 0 -12l463 -655q9 -12 3.5 -21.5t-20.5 -9.5h-67q-20 0 -29 14l-424 594q-5 9 -12 2l-174 -176
q-4 -4 -4 -10v-399q0 -11 -7.5 -18t-17.5 -7h-59z" />
    </font>
</defs>
</svg>
